Ссылка на приватное зеркало нашего сайта всего за 1$. Внимание количество ограничено!!!

2 сезон

iTunes

iTunes

1

iTunes

iTunes

iTunes

WEBRip

iTunes

30
pack

Вам бонус

ВАЖНО

!!Акция!!

Alien_RageХит недели

RePack

Horizon Zero Dawn

ИГРА 18+

pack

RePack

jed

!!Акция!!

Alien_Rage

RePack

fifa19

RePack

Assassins Creed: Odyssey

RePack

NEED FOR SPEED™ PAYBACK

4 сезон

9 сезон

Бесстыжие 9 сезон

Все сериалы

все сериалы на PB.wtf

RePack

FAR CRY 5
  

Страх[и] темноты и не только / Peur(s) du noir (Блатч / Blutch, Чарльз Бернс / Charles Burns, Мари Кайу / Marie Caillou) [2007, Франция, мультфильм, ужасы, драма, DVDRip, Профессиональный многоголосый] piratbit.org

Страх через торрент piratbit.org

Размер: 1.04 GB | Добавлен: 6 лет назад | Торрент скачан:105 раз
Скачать  

14-09-2014 19:35 Страх Скачать торрент  

Страх[и] темноты и не только / Peur(s) du noir«И не только»
Год выпуска: 2007
Страна: Франция
Жанр: мультфильм для взрослых, ужасы, драма, детектив
Продолжительность: 01:19:04
Перевод: Профессиональный многоголосый
Субтитры: Отсутствует
Режиссер: Блатч / Blutch, Чарльз Бернс / Charles Burns, Мари Кайу / Marie Caillou
В ролях:


Джил Альма (озвучка), Ор Атика (Laura, озвучка), Франсуа Кретон (The teacher, озвучка), Гийом Депардье (Eric, озвучка), Сара-Лора Эстранья (озвучка), Николя Ферумон (озвучка), Николь Гарсия (рассказчик, озвучка), Артур Х. (рассказчик, озвучка), Кристиан Эк (The doctor / The samurai, озвучка), Кристиан Хинкер (озвучка), Лино Хинкер (озвучка), Мелаура Хонней (озвучка)

Описание:
Уникальный анимационный проект, объединивший лучших художников в жанре комиксов. Впервые им было предложено «выложить» на кинопленку мурашки по коже, обнаженные нервы и дрожь потных рук - все, что связано с самым древним человеческим страхом - страхом темноты.
Прикосновение паучьих лапок, странные звуки в пустом доме, ощущение чужого присутствия и собачий вой в тишине ночи... Стильный черно-белый кошмар, который не стоит смотреть в одиночестве на сон грядущий.

Рейтинг:

Качество: DVDRip
Формат: AVI
Видео кодек:XviD
Аудио кодек:AC3
Видео: XviD, 720x400 (16:9), 1688 kbps, 24 fps, 0,244 bpp
Аудио: AC3 / 2.0 / 48 kHz / 192 kbps / 16 bit

General
Complete name : D:\Users\_KaisiK_\Bitcomet\КИНО\Peur(s) du noir_2007_DVDRip.avi
Format : AVI
Format/Info : Audio Video Interleave
Format profile : OpenDML
Format settings : rec
File size : 1.04 GiB
Duration : 1h 19mn
Overall bit rate : 1 886 Kbps
Writing application : AVI-Mux GUI 1.17.8.3, Feb 16 201019:42:50

Video
ID : 0
Format : MPEG-4 Visual
Format profile : Advanced Simple@L5
Format settings, BVOP : No
Format settings, QPel : No
Format settings, GMC : No warppoints
Format settings, Matrix : Default (H.263)
Codec ID : XVID
Codec ID/Hint : XviD
Duration : 1h 19mn
Bit rate : 1 689 Kbps
Width : 720 pixels
Height : 400 pixels
Display aspect ratio : 16:9
Frame rate : 24.000 fps
Color space : YUV
Chroma subsampling : 4:2:0
Bit depth : 8 bits
Scan type : Progressive
Compression mode : Lossy
Bits/(Pixel*Frame) : 0.244
Stream size : 955 MiB (90%)
Writing library : XviD 62

Audio
ID : 1
Format : AC-3
Format/Info : Audio Coding 3
Mode extension : CM (complete main)
Codec ID : 2000
Duration : 1h 19mn
Bit rate mode : Constant
Bit rate : 192 Kbps
Channel(s) : 2 channels
Channel positions : Front: L R
Sampling rate : 48.0 KHz
Bit depth : 16 bits
Compression mode : Lossy
Stream size : 109 MiB (10%)
Alignment : Aligned on interleaves
Interleave, duration : 64 ms (1.54 video frames)
Interleave, preload duration : 192 ms
Title : Rus

[/code]
piratbit.org



Скачать Страх через торрент http://i4.imageban.ru/out/2014/09/14/51b43d343a70aed9eccb0971ae6cc94d.jpg Скачать фильм Страх[и] темноты и не только через торрент бесплантно в хорошем качестве Описание: Уникальный анимационный проект, объединивший лучших художников в жанре комиксов. Впервые им было предложено «выложить» на ... 8.3 10 8
Торрент: Зарегистрирован [2014-09-14 19:35] · скачан: 105 раз
Статус: √ проверено
Размер: 1.04 GB
Как cкачать? Как скачать Страх через торрент | qTorrent

% Раздел Тема Автор DL S | L
TBS (пошаговые стратегии) [ 2.05 GB ] Космическая федерация II. Звезды страха [L] Shmel Скачать
1 | 0
Фильмы до 2000 г. [ 2.19 GB ] Страх и ненависть в Лас-Вегасе  / Fear and Loathing in Las Vegas [1998 ] aspace Скачать
2 | 0
Фильмы [HD 720p, 1080p] (Хороший звук DUB, MVO) [ 6.1 GB ] Власть страха / The Bone Collector [1999 BDRip 720p лицензия] Ke$h@ Скачать
1 | 0
Фильмы [HD 720p, 1080p] (Хороший звук DUB, MVO) [ 5.23 GB ] Власть страха / The Bone Collector [1999 BDRip 720p] diletant Скачать
1 | 0
Фильмы до 2000 г. [ 1.46 GB ] Первобытный страх / Primal Fear [1996 HDRip] MVO 0xiDESK Скачать
1 | 1
Фильмы 2012 [ 1.17 GB ] Озеро страха 4: Последняя глава / Lake Placid: The Final Chapter [2012 DVDRip VO / schemer] Mr. Freeman Скачать
1 | 0
Иностранные мультфильмы [ 1.37 GB ] Школа монстров: Страх! Камера! Мотор! / Monster High: Frights Camera Action! [ 2014 мультфильм HDRip ] DUB[] GEKADOL Скачать
1 | 0

28-11-2019 20:33  

Отключить всю рекламу на сайте

    Дорогой пользователь! Огромная просьба, поблагодарите релизера, оцените раздачу и оставьте свои комментарий, если Вы скачали Страх через торрент бесплатно! Внесите свою лепту в развитие PiratBit!
    Комментировать посты могут только пользователи прошедшие не сложную регистрацию
    Показать сообщения:    

    Страх через торрент
    Скачать бесплатно Страх
    Страх скачать торрент
    Страх смотреть онлайн
    Cкачать фильм Страх бесплатно
    Страх скачать торрент в хорошем качестве
    Страх смотреть онлайн бесплатно в хорошем качестве


    Вы не можете начинать темы
    Вы не можете отвечать на сообщения
    Вы не можете редактировать свои сообщения
    Вы не можете удалять свои сообщения
    Вы не можете голосовать в опросах
    Вы не можете прикреплять файлы к сообщениям
    Вы можете скачивать файлы