Доктор Стрэндж

Лицензия

Добыча

Дубляж

Уэнсдэй

1 сезон

Тор

Дубляж

В эфире

Дубляж

Там, где раки поют

MVO

Властелин колец

1 сезон

Deluxe

pack

Рекомендуем

30

Пиратка

ВАЖНО

ВАЖНО

Ghostwire

Пиратка

jed

RePack

nioh2

RePack

RDR2

RePack

NEED FOR SPEED™ PAYBACK

RePack

скачать торрент

Кинопоиск HD

Острые козырьки 6 сезон

6 сезон

FAR CRY 6

RePack

скачать торрент

Лицензия

скачать торрент

MVO

1

1 сезон

скачать торрент

1 сезон

скачать торрент

Лицензия

  

Человек будущего / O Homem Do Futuro (Клаудио Торрес) [2011г., комедия, фантастика, фэнтези, BDRip 720p] VO

Человек будущего через торрент piratbit.org

Размер: 4.51 GB | Добавлен: 8 лет 2 мес. назад | Торрент скачан:32 раза
Смотреть онлайн | Скачать   

17-09-2014 12:14 Человек будущего Скачать торрент  

Человек будущего / O Homem Do Futuro

Год выпуска: 2011
Страна: Бразилия
Жанр: комедия, фантастика, фэнтези
Продолжительность: 01:52:28
Перевод: Любительский одноголосый
Субтитры: Русские, английские

Режиссёр: Клаудио Торрес

В ролях: Вагнер Моура, Алинне Мораес, Мария Луиза Мендонича, Габриель Брага Нуньес, Родольфо Боттино, Грегориу Дювивьер, Жан Пьер Нойер, Роджерио Фроес, Ливия Де Буено

Описание: Зэро является выдающимся ученым, но неудачником, потому что 20 лет назад был публично оскорблён и потерял в колледже любовь всей его жизни. Однажды случайный опыт с одним из его изобретений заставляет его путешествовать во времени. После шанса изменить свою жизнь Зэро возвращается к этому полностью изменённому миру.



Качество: BDRip 720p [Исходник от FREEDONOR] Сравнение с исходником
Формат: MKV
Видео кодек: H264
Аудио кодек: AC3
Видео: 1280x544, 4985 kbps, 24 кадра/сек
Аудио 1: русский, AC3, 192 kbps, 2 ch, 48 kHz [Любительский одноголосый, Slavnus Spacedust по переводу Артура Насырова]
Аудио 2: португальский, AC3, 448 kbps, 6 ch, 48 kHz [Оригинал]
Общее
Уникальный идентификатор : 245747793848113763779726599996282897563 (0xB8E14DB1C705E8C1B1B46208856A049B)
Полное имя : D:VideoChelovek budushego.2011.BDRip.720p.mkv
Формат : Matroska
Версия формата : Version 4 / Version 2
Размер файла : 4,51 Гбайт
Продолжительность : 1 ч. 52 м.
Общий поток : 5740 Кбит/сек
Дата кодирования : UTC 2014-08-09 03:31:56
Программа кодирования : mkvmerge v6.9.1 ('Blue Panther') 64bit built on Apr 18 2014 18:23:38
Библиотека кодирования : libebml v1.3.0 + libmatroska v1.4.1

Видео
Идентификатор : 1
Формат : AVC
Формат/Информация : Advanced Video Codec
Профиль формата : High@L4.1
Параметр CABAC формата : Да
Параметр ReFrames формата : 9 кадров
Идентификатор кодека : V_MPEG4/ISO/AVC
Продолжительность : 1 ч. 52 м.
Битрейт : 4985 Кбит/сек
Ширина : 1280 пикселей
Высота : 544 пикселя
Соотношение сторон : 2,35:1
Режим частоты кадров : Постоянный
Частота кадров : 24,000 кадра/сек
Цветовое пространство : YUV
Субдискретизация насыщенности : 4:2:0
Битовая глубина : 8 бит
Тип развёртки : Прогрессивная
Бит/(Пиксели*Кадры) : 0.298
Размер потока : 3,92 Гбайт (87%)
Заголовок : BDRip -- STarankov
Библиотека кодирования : x264 core 142 r2431 ac76440
Настройки программы : cabac=1 / ref=9 / deblock=1:-1:-1 / analyse=0x3:0x113 / me=umh / subme=10 / psy=1 / psy_rd=1.00:0.15 / mixed_ref=1 / me_range=32 / chroma_me=1 / trellis=2 / 8x8dct=1 / cqm=0 / deadzone=21,11 / fast_pskip=0 / chroma_qp_offset=-3 / threads=6 / lookahead_threads=1 / sliced_threads=0 / nr=0 / decimate=1 / interlaced=0 / bluray_compat=0 / constrained_intra=0 / bframes=8 / b_pyramid=2 / b_adapt=2 / b_bias=0 / direct=1 / weightb=1 / open_gop=0 / weightp=2 / keyint=230 / keyint_min=23 / scenecut=40 / intra_refresh=0 / rc_lookahead=40 / rc=crf / mbtree=0 / crf=19.5 / qcomp=0.60 / qpmin=0 / qpmax=69 / qpstep=4 / vbv_maxrate=40000 / vbv_bufsize=50000 / crf_max=0.0 / nal_hrd=none / filler=0 / ip_ratio=1.40 / pb_ratio=1.30 / aq=1:1.00
Язык : Portuguese
Default : Да
Forced : Нет

Аудио #1
Идентификатор : 2
Формат : AC-3
Формат/Информация : Audio Coding 3
Расширение режима : CM (complete main)
Параметр Endianness формата : Big
Идентификатор кодека : A_AC3
Продолжительность : 1 ч. 52 м.
Вид битрейта : Постоянный
Битрейт : 192 Кбит/сек
Каналы : 2 канала
Расположение каналов : Front: L R
Частота : 48,0 КГц
Битовая глубина : 16 бит
Метод сжатия : С потерями
Размер потока : 154 Мбайт (3%)
Заголовок : VO (любительский одноголосый, Slavnus Spacedust, перевод Артура Насырова)
Язык : Russian
Default : Да
Forced : Нет

Аудио #2
Идентификатор : 3
Формат : AC-3
Формат/Информация : Audio Coding 3
Расширение режима : CM (complete main)
Параметр Endianness формата : Big
Идентификатор кодека : A_AC3
Продолжительность : 1 ч. 52 м.
Вид битрейта : Постоянный
Битрейт : 448 Кбит/сек
Каналы : 6 каналов
Расположение каналов : Front: L C R, Side: L R, LFE
Частота : 48,0 КГц
Битовая глубина : 16 бит
Метод сжатия : С потерями
Размер потока : 360 Мбайт (8%)
Заголовок : Original
Язык : Portuguese
Default : Нет
Forced : Нет

Текст #1
Идентификатор : 4
Формат : UTF-8
Идентификатор кодека : S_TEXT/UTF8
Идентификатор кодека/Информация : UTF-8 Plain Text
Заголовок : русский
Язык : Russian
Default : Нет
Forced : Нет

Текст #2
Идентификатор : 5
Формат : UTF-8
Идентификатор кодека : S_TEXT/UTF8
Идентификатор кодека/Информация : UTF-8 Plain Text
Заголовок : английский
Default : Нет
Forced : Нет

---[Information] [07.08.2014 5:04:07] x264 [info]: using SAR=1/1
---[Information] [07.08.2014 5:04:07] x264 [info]: using cpu capabilities: MMX2 SSE2Fast SSSE3 SSE4.2
---[Information] [07.08.2014 5:04:07] x264 [info]: profile High, level 4.1
---[Information] [07.08.2014 11:43:15] x264 [info]: frame I:1487 Avg QP:18.52 size: 89051
---[Information] [07.08.2014 11:43:15] x264 [info]: frame P:33051 Avg QP:20.58 size: 50393
---[Information] [07.08.2014 11:43:15] x264 [info]: frame B:117061 Avg QP:23.02 size: 21372
---[Information] [07.08.2014 11:43:15] x264 [info]: consecutive B-frames: 2.6% 2.3% 6.3% 25.7% 16.4% 31.4% 9.0% 2.7% 3.6%
---[Information] [07.08.2014 11:43:15] x264 [info]: mb I I16..4: 23.7% 57.2% 19.0%
---[Information] [07.08.2014 11:43:15] x264 [info]: mb P I16..4: 6.3% 21.5% 3.0% P16..4: 27.7% 20.6% 10.4% 0.0% 0.0% skip:10.5%
---[Information] [07.08.2014 11:43:15] x264 [info]: mb B I16..4: 0.6% 4.1% 0.3% B16..8: 37.6% 12.4% 4.6% direct: 7.7% skip:32.6% L0:44.7% L1:43.9% BI:11.4%
---[Information] [07.08.2014 11:43:15] x264 [info]: 8x8 transform intra:72.6% inter:59.4%
---[Information] [07.08.2014 11:43:15] x264 [info]: coded y,uvDC,uvAC intra: 81.7% 76.5% 51.2% inter: 34.9% 21.8% 3.3%
---[Information] [07.08.2014 11:43:15] x264 [info]: i16 v,h,dc,p: 53% 4% 19% 24%
---[Information] [07.08.2014 11:43:15] x264 [info]: i8 v,h,dc,ddl,ddr,vr,hd,vl,hu: 10% 7% 16% 9% 12% 12% 12% 11% 11%
---[Information] [07.08.2014 11:43:15] x264 [info]: i4 v,h,dc,ddl,ddr,vr,hd,vl,hu: 10% 7% 7% 9% 15% 15% 13% 12% 12%
---[Information] [07.08.2014 11:43:15] x264 [info]: i8c dc,h,v,p: 40% 22% 19% 19%
---[Information] [07.08.2014 11:43:15] x264 [info]: Weighted P-Frames: Y:7.9% UV:6.2%
---[Information] [07.08.2014 11:43:15] x264 [info]: ref P L0: 42.7% 11.2% 19.3% 7.2% 6.3% 4.1% 4.1% 2.3% 2.5% 0.3% 0.0%
---[Information] [07.08.2014 11:43:15] x264 [info]: ref B L0: 69.8% 12.9% 6.9% 3.9% 2.7% 2.2% 1.2% 0.5%
---[Information] [07.08.2014 11:43:15] x264 [info]: ref B L1: 92.4% 7.6%
---[Information] [07.08.2014 11:43:15] x264 [info]: kb/s:5445.63
---[Information] [07.08.2014 11:43:15] encoded 151599 frames, 6.33 fps, 5445.63 kb/s
--[Information] [07.08.2014 11:43:16] Final statistics
---[Information] [07.08.2014 11:43:16] Constant Quality Mode: Quality 19 computed...
---[Information] [07.08.2014 11:43:16] Video Bitrate Obtained (approximate): 5447 kbit/s
--[Information] [07.08.2014 11:43:16] MediaInfo
---[Information] [07.08.2014 11:43:16] File: D:RipChelovek budushego.2011.BDRipChelovek budushego.2011.BDRip.720p.mkv



Скачать Человек будущего через торрент http://i64.fastpic.ru/big/2014/0916/fa/27ec779d6c16b6304df5fae639d40cfa.jpg Скачать, смотреть онлайн Человек будущего бесплантно в хорошем качестве Описание: Зэро является выдающимся ученым, но неудачником, потому что 20 лет назад был публично оскорблён и потерял в колледже любовь всей ... 5 10 1
Торрент: Зарегистрирован [2014-09-17 12:14] · скачан: 32 раз
Статус: √ проверено
Размер: 4.51 GB
Как cкачать? Как скачать Человек будущего через торрент | UTorrent

% Раздел Тема Автор DL S | L
Фильмы [HD 720p, 1080p] (Звук Cam, VO, DVO) [ 11.02 GB ] Человек будущего / O Homem Do Futuro | | 1080p msltel Скачать
1 | 0
Фильмы 2010 [ 1.66 GB ] Человек будущего / O Homem Do Futuro | | BDRip msltel Скачать
1 | 0
T Фильмы 2011 [ 700 MB ] Человек будущего / O Homem Do Futuro | | DVDRip, VO oleg8 Скачать
1 | 0

28-11-2019 20:33  


Отключить вcю реклaмy на сайте, в т.ч. и в плеере онлайн просмотра!

    Дорогой пользователь! Огромная просьба, поблагодарите релизера, оцените раздачу и оставьте свои комментарий, если Вы скачали Человек будущего через торрент бесплатно!!
    Комментировать посты могут только пользователи прошедшие не сложную регистрацию
    Показать сообщения:    


    Человек будущего через торрент
    Скачать бесплатно Человек будущего
    Человек будущего скачать торрент
    Человек будущего смотреть онлайн
    Cкачать фильм Человек будущего бесплатно
    Человек будущего скачать торрент в хорошем качестве
    Человек будущего смотреть онлайн бесплатно в хорошем качестве
    Вы не можете начинать темы
    Вы не можете отвечать на сообщения
    Вы не можете редактировать свои сообщения
    Вы не можете удалять свои сообщения
    Вы не можете голосовать в опросах
    Вы не можете прикреплять файлы к сообщениям
    Вы можете скачивать файлы
    Человек будущего / O Homem Do Futuro [2011г., комедия, фантастика, фэнтези, BDRip 720p] VO смотреть онлайн, скачать торрент picoco.icu