Доктор Стрэндж

Лицензия

Добыча

Дубляж

Уэнсдэй

1 сезон

Тор

Дубляж

В эфире

Дубляж

Там, где раки поют

MVO

Властелин колец

1 сезон

Deluxe

pack

Рекомендуем

30

Пиратка

ВАЖНО

ВАЖНО

Ghostwire

Пиратка

jed

RePack

nioh2

RePack

RDR2

RePack

NEED FOR SPEED™ PAYBACK

RePack

скачать торрент

Кинопоиск HD

Острые козырьки 6 сезон

6 сезон

FAR CRY 6

RePack

скачать торрент

Лицензия

скачать торрент

MVO

1

1 сезон

скачать торрент

1 сезон

скачать торрент

Лицензия

  

Человек будущего / O Homem Do Futuro (Клаудио Торрес) [2011г., комедия, фантастика, фэнтези, BDRip 1080p] VO

Человек будущего через торрент piratbit.org

Размер: 11.02 GB | Добавлен: 8 лет 2 мес. назад | Торрент скачан:31 раз
Смотреть онлайн | Скачать   

17-09-2014 12:23 Человек будущего Скачать торрент  

Человек будущего / O Homem Do Futuro

Год выпуска: 2011
Страна: Бразилия
Жанр: комедия, фантастика, фэнтези
Продолжительность: 01:52:28
Перевод: Любительский одноголосый
Субтитры: Русские, английские

Режиссёр: Клаудио Торрес

В ролях: Вагнер Моура, Алинне Мораес, Мария Луиза Мендонича, Габриель Брага Нуньес, Родольфо Боттино, Грегориу Дювивьер, Жан Пьер Нойер, Роджерио Фроес, Ливия Де Буено

Описание: Зэро является выдающимся ученым, но неудачником, потому что 20 лет назад был публично оскорблён и потерял в колледже любовь всей его жизни. Однажды случайный опыт с одним из его изобретений заставляет его путешествовать во времени. После шанса изменить свою жизнь Зэро возвращается к этому полностью изменённому миру.



Качество: BDRip 1080p [Исходник от FREEDONOR] Сравнение с исходником
Формат: MKV
Видео кодек: H264
Аудио кодек: AC3
Видео: 1280x544, 4985 kbps, 24 кадра/сек
Аудио 1: русский, AC3, 192 kbps, 2 ch, 48 kHz [Любительский одноголосый, Slavnus Spacedust по переводу Артура Насырова]
Аудио 2: португальский, AC3, 448 kbps, 6 ch, 48 kHz [Оригинал]
Общее
Уникальный идентификатор : 251655484194596456879084827507460238616 (0xBD5315510C9F1253876333051AB56D18)
Полное имя : D:VideoChelovek budushego.2011.BDRip.1080p.mkv
Формат : Matroska
Версия формата : Version 4 / Version 2
Размер файла : 11,0 Гбайт
Продолжительность : 1 ч. 52 м.
Общий поток : 14,0 Мбит/сек
Дата кодирования : UTC 2014-08-06 04:59:17
Программа кодирования : mkvmerge v6.9.1 ('Blue Panther') 64bit built on Apr 18 2014 18:23:38
Библиотека кодирования : libebml v1.3.0 + libmatroska v1.4.1

Видео
Идентификатор : 1
Формат : AVC
Формат/Информация : Advanced Video Codec
Профиль формата : High@L4.1
Параметр CABAC формата : Да
Параметр ReFrames формата : 4 кадра
Идентификатор кодека : V_MPEG4/ISO/AVC
Продолжительность : 1 ч. 52 м.
Битрейт : 12,0 Мбит/сек
Ширина : 1920 пикселей
Высота : 816 пикселей
Соотношение сторон : 2,35:1
Режим частоты кадров : Постоянный
Частота кадров : 24,000 кадра/сек
Цветовое пространство : YUV
Субдискретизация насыщенности : 4:2:0
Битовая глубина : 8 бит
Тип развёртки : Прогрессивная
Бит/(Пиксели*Кадры) : 0.320
Размер потока : 9,46 Гбайт (86%)
Заголовок : BDRip -- STarankov
Библиотека кодирования : x264 core 142 r2431 ac76440
Настройки программы : cabac=1 / ref=4 / deblock=1:-1:-1 / analyse=0x3:0x113 / me=umh / subme=10 / psy=1 / psy_rd=1.00:0.15 / mixed_ref=1 / me_range=32 / chroma_me=1 / trellis=2 / 8x8dct=1 / cqm=0 / deadzone=21,11 / fast_pskip=0 / chroma_qp_offset=-3 / threads=6 / lookahead_threads=1 / sliced_threads=0 / nr=0 / decimate=1 / interlaced=0 / bluray_compat=0 / constrained_intra=0 / bframes=8 / b_pyramid=2 / b_adapt=2 / b_bias=0 / direct=1 / weightb=1 / open_gop=0 / weightp=2 / keyint=230 / keyint_min=23 / scenecut=40 / intra_refresh=0 / rc_lookahead=40 / rc=crf / mbtree=0 / crf=20.5 / qcomp=0.60 / qpmin=0 / qpmax=69 / qpstep=4 / vbv_maxrate=40000 / vbv_bufsize=50000 / crf_max=0.0 / nal_hrd=none / filler=0 / ip_ratio=1.40 / pb_ratio=1.30 / aq=1:1.00
Язык : Portuguese
Default : Да
Forced : Нет

Аудио #1
Идентификатор : 2
Формат : AC-3
Формат/Информация : Audio Coding 3
Расширение режима : CM (complete main)
Параметр Endianness формата : Big
Идентификатор кодека : A_AC3
Продолжительность : 1 ч. 52 м.
Вид битрейта : Постоянный
Битрейт : 192 Кбит/сек
Каналы : 2 канала
Расположение каналов : Front: L R
Частота : 48,0 КГц
Битовая глубина : 16 бит
Метод сжатия : С потерями
Размер потока : 154 Мбайт (1%)
Заголовок : VO (любительский, Slavnus Spacedust, перевод Артура Насырова)
Язык : Russian
Default : Да
Forced : Нет

Аудио #2
Идентификатор : 3
Формат : DTS
Формат/Информация : Digital Theater Systems
Режим : 16
Параметр Endianness формата : Big
Идентификатор кодека : A_DTS
Продолжительность : 1 ч. 52 м.
Вид битрейта : Постоянный
Битрейт : 1509 Кбит/сек
Каналы : 6 каналов
Расположение каналов : Front: L C R, Side: L R, LFE
Частота : 48,0 КГц
Битовая глубина : 16 бит
Метод сжатия : С потерями
Размер потока : 1,19 Гбайт (11%)
Заголовок : Original
Язык : Portuguese
Default : Нет
Forced : Нет

Текст #1
Идентификатор : 4
Формат : UTF-8
Идентификатор кодека : S_TEXT/UTF8
Идентификатор кодека/Информация : UTF-8 Plain Text
Заголовок : русский
Язык : Russian
Default : Нет
Forced : Нет

Текст #2
Идентификатор : 5
Формат : UTF-8
Идентификатор кодека : S_TEXT/UTF8
Идентификатор кодека/Информация : UTF-8 Plain Text
Заголовок : английский
Default : Нет
Forced : Нет

---[Information] [04.08.2014 9:00:48] raw [info]: 1920x816p 1:1 @ 24000/1001 fps (cfr)
---[Information] [04.08.2014 9:00:48] x264 [info]: using SAR=1/1
---[Information] [04.08.2014 9:00:48] x264 [info]: using cpu capabilities: MMX2 SSE2Fast SSSE3 SSE4.2
---[Information] [04.08.2014 9:00:48] x264 [info]: profile High, level 4.1
---[Information] [04.08.2014 20:30:07] x264 [info]: frame I:1295 Avg QP:19.53 size:173725
---[Information] [04.08.2014 20:30:07] x264 [info]: frame P:32649 Avg QP:21.19 size:112216
---[Information] [04.08.2014 20:30:07] x264 [info]: frame B:117655 Avg QP:23.87 size: 55287
---[Information] [04.08.2014 20:30:07] x264 [info]: consecutive B-frames: 2.6% 2.3% 7.6% 20.7% 13.4% 37.1% 7.6% 3.1% 5.7%
---[Information] [04.08.2014 20:30:07] x264 [info]: mb I I16..4: 25.2% 60.4% 14.4%
---[Information] [04.08.2014 20:30:07] avs [info]: AviSynth 2.60, build:May 25 2011 [19:58:41]
---[Information] [04.08.2014 20:30:07] x264 [info]: mb P I16..4: 8.6% 31.0% 2.9% P16..4: 22.9% 15.8% 6.4% 0.0% 0.0% skip:12.4%
---[Information] [04.08.2014 20:30:07] x264 [info]: mb B I16..4: 1.2% 6.2% 0.3% B16..8: 42.2% 10.6% 3.4% direct: 8.0% skip:28.1% L0:44.7% L1:45.3% BI:10.0%
---[Information] [04.08.2014 20:30:07] avs [info]: Video colorspace: YV12
---[Information] [04.08.2014 20:30:07] avs [info]: Video resolution: 1920x816
---[Information] [04.08.2014 20:30:07] x264 [info]: 8x8 transform intra:75.3% inter:57.9%
---[Information] [04.08.2014 20:30:07] avs [info]: Video framerate: 48000/2000
---[Information] [04.08.2014 20:30:07] avs [info]: Video framecount: 151599
---[Information] [04.08.2014 20:30:07] x264 [info]: coded y,uvDC,uvAC intra: 83.0% 71.8% 41.7% inter: 41.0% 24.3% 2.5%
---[Information] [04.08.2014 20:30:07] x264 [info]: i16 v,h,dc,p: 52% 5% 22% 21%
---[Information] [04.08.2014 20:30:07] avs4x264 [info]: "x264_64" - --level 4.1 --tune film --crf 20.5 --keyint 230 --bframes 8 --b-adapt 2 --ref 4 --vbv-bufsize 50000 --vbv-maxrate 40000 --no-mbtree --merange 32 --me umh --subme 10 --trellis 2 --no-fast-pskip --sar 1:1 --output "D:RipChelovek budushego.2011.BDRipChelovek budushego.2011.BDRip.1080p.mkv" --frames 151599 --fps 48000/2000 --input-res 1920x816 --input-csp i420
---[Information] [04.08.2014 20:30:07] x264 [info]: i8 v,h,dc,ddl,ddr,vr,hd,vl,hu: 9% 6% 18% 10% 13% 12% 11% 11% 11%
---[Information] [04.08.2014 20:30:07] x264 [info]: i4 v,h,dc,ddl,ddr,vr,hd,vl,hu: 9% 7% 9% 9% 14% 13% 13% 11% 13%
---[Information] [04.08.2014 20:30:07] x264 [info]: i8c dc,h,v,p: 40% 23% 20% 17%
---[Information] [04.08.2014 20:30:07] x264 [info]: Weighted P-Frames: Y:5.7% UV:4.6%
---[Information] [04.08.2014 20:30:07] x264 [info]: ref P L0: 49.0% 11.6% 26.9% 11.3% 1.2% 0.0%
---[Information] [04.08.2014 20:30:07] x264 [info]: ref B L0: 85.4% 11.8% 2.9%
---[Information] [04.08.2014 20:30:07] x264 [info]: ref B L1: 92.0% 8.0%
---[Information] [04.08.2014 20:30:07] x264 [info]: kb/s:13163.30
---[Information] [04.08.2014 20:30:07] encoded 151599 frames, 3.66 fps, 13163.30 kb/s
--[Information] [04.08.2014 20:30:08] Final statistics
---[Information] [04.08.2014 20:30:08] Constant Quality Mode: Quality 20 computed...
---[Information] [04.08.2014 20:30:08] Video Bitrate Obtained (approximate): 13164 kbit/s
--[Information] [04.08.2014 20:30:08] MediaInfo
---[Information] [04.08.2014 20:30:08] File: D:RipChelovek budushego.2011.BDRipChelovek budushego.2011.BDRip.1080p.mkv



Скачать Человек будущего через торрент http://i64.fastpic.ru/big/2014/0916/fa/27ec779d6c16b6304df5fae639d40cfa.jpg Скачать, смотреть онлайн Человек будущего бесплантно в хорошем качестве Описание: Зэро является выдающимся ученым, но неудачником, потому что 20 лет назад был публично оскорблён и потерял в колледже любовь всей ... 10 10 1
Торрент: Зарегистрирован [2014-09-17 12:23] · скачан: 31 раз
Статус: √ проверено
Размер: 11.02 GB
Как cкачать? Как скачать Человек будущего через торрент | UTorrent

% Раздел Тема Автор DL S | L
Фильмы [HD 720p, 1080p] (Звук Cam, VO, DVO) [ 4.51 GB ] Человек будущего / O Homem Do Futuro | | 720p msltel Скачать
1 | 0
Фильмы 2010 [ 1.66 GB ] Человек будущего / O Homem Do Futuro | | BDRip msltel Скачать
1 | 0
T Фильмы 2011 [ 700 MB ] Человек будущего / O Homem Do Futuro | | DVDRip, VO oleg8 Скачать
1 | 0

28-11-2019 20:33  


Отключить вcю реклaмy на сайте, в т.ч. и в плеере онлайн просмотра!

    Дорогой пользователь! Огромная просьба, поблагодарите релизера, оцените раздачу и оставьте свои комментарий, если Вы скачали Человек будущего через торрент бесплатно!!
    Комментировать посты могут только пользователи прошедшие не сложную регистрацию
    Показать сообщения:    


    Человек будущего через торрент
    Скачать бесплатно Человек будущего
    Человек будущего скачать торрент
    Человек будущего смотреть онлайн
    Cкачать фильм Человек будущего бесплатно
    Человек будущего скачать торрент в хорошем качестве
    Человек будущего смотреть онлайн бесплатно в хорошем качестве
    Вы не можете начинать темы
    Вы не можете отвечать на сообщения
    Вы не можете редактировать свои сообщения
    Вы не можете удалять свои сообщения
    Вы не можете голосовать в опросах
    Вы не можете прикреплять файлы к сообщениям
    Вы можете скачивать файлы
    Человек будущего / O Homem Do Futuro [2011г., комедия, фантастика, фэнтези, BDRip 1080p] VO смотреть онлайн, скачать торрент picoco.icu