1 сезон

3 сезон

iTunes

1

iTunes

MVO

iTunes

13

1 сезон

RePack

30

Deluxe

pack

Лицензия

ВАЖНО

ИГРА 18+

pack

RePack

MK11

RePack

jed

RePack

fifa19

RePack

RDR2

RePack

NEED FOR SPEED™ PAYBACK

4 сезон

9 сезон

Бесстыжие 9 сезон

Все сериалы

все сериалы на PB.wtf

RePack

FAR CRY 5

Anonymous, добрый вечер, мы катастрофически не успеваем собрать деньги на оплату серверов, помогите нам пожалуйста 5,10,15р., для нас важна любая помощь . В качестве благодарности мы отключим Вам всю рекламу на сайте (укажите свой ник в строку Ваше имя)!

×
  
Magnet ссылка

Азуми / Azumi (Рюхэй Китамура) [2003г., боевик, триллер, фэнтези, драма, приключения, BDRip] MVO, VO piratbit.org

Азуми через торрент piratbit.org

Размер: 2.8 GB | Добавлен: 6 лет 10 мес. назад | Торрент скачан:141 раз
Скачать  

19-09-2014 05:51 Азуми Скачать торрент  

Азуми / Azumi
Релиз от: msltel

Год выпуска: 2003
Страна: Япония
Жанр: боевик, триллер, фэнтези, драма, приключения
Продолжительность: 02:13:12
Перевод: Профессиональный многоголосый, любительский одноголосый
Субтитры: Нет

Режиссёр: Рюхэй Китамура

В ролях: Ая Уето, Шун Огури, Хироки Наримия, Кенджи Кохаши, Такатоши Канеко, Юма Ишигаки, Ясуоми Сано, Шиньджи Сузуки, Эйта, Шого Ямагучи, Казуки Китамура, Кеничи Эндо, Казуя Шимицу, Рио, Йошио Харада, Масато Ибу, Минору Мацумото, Джо Одагири, Ая Окамото, Так Сакагучи

Описание: В одном из уединённых монастырей путем жесткого отбора и специальных тренировок создавалась каста профессиональных убийц. Десять выпускников сошлись в смертельной схватке. В живых останутся лучшие. Ей предназначена миссия по предотвращению гражданской войны путем уничтожения правителей трёх провинций. Но время было упущено, и теперь Азуми предстоит сражение с огромной армией последнего правителя…



Качество: BDRip [Исходник от Augnychku] Сравнение с исходником
Формат: AVI
Видео кодек: XviD
Аудио кодек: AC3
Видео: 704x384, 1908 kbps, 23.976 кадра/сек
Аудио: русский, AC3, 448 kbps, 6 ch, 48 kHz [Профессиональный многоголосый, Cinema Prestige]

Отдельные файлы
Аудио: русский, AC3, 192 kbps, 2 ch, 48 kHz [Любительский одноголосый]
Аудио: японский, AC3, 448 kbps, 6 ch, 48 kHz [Оригинал]
Общее
Полное имя : D:VideoAzumi.2003.BDRipAzumi.2003.BDRip.avi
Формат : AVI
Формат/Информация : Audio Video Interleave
Профиль формата : OpenDML
Размер файла : 2,20 Гбайт
Продолжительность : 2 ч. 13 м.
Общий поток : 2368 Кбит/сек
Программа кодирования : VirtualDubMod 1.5.10.2 (build 2540/release)
Библиотека кодирования : VirtualDubMod build 2540/release

Видео
Идентификатор : 0
Формат : MPEG-4 Visual
Профиль формата : Advanced Simple@L5
Параметр BVOP формата : 1
Параметр QPel формата : Нет
Параметр GMC формата : Без точки перехода
Параметр матрицы формата : Default (H.263)
Режим смешивания : Сжатый битовый поток
Идентификатор кодека : XVID
Идентификатор кодека/Подсказка : XviD
Продолжительность : 2 ч. 13 м.
Битрейт : 1908 Кбит/сек
Ширина : 704 пикселя
Высота : 384 пикселя
Соотношение сторон : 1,85:1
Частота кадров : 23,976 кадра/сек
Цветовое пространство : YUV
Субдискретизация насыщенности : 4:2:0
Битовая глубина : 8 бит
Тип развёртки : Прогрессивная
Метод сжатия : С потерями
Бит/(Пиксели*Кадры) : 0.294
Размер потока : 1,78 Гбайт (81%)
Библиотека кодирования : XviD 1.2.1 (UTC 2008-12-04)

Аудио
Идентификатор : 1
Формат : AC-3
Формат/Информация : Audio Coding 3
Расширение режима : CM (complete main)
Параметр Endianness формата : Big
Идентификатор кодека : 2000
Продолжительность : 2 ч. 13 м.
Вид битрейта : Постоянный
Битрейт : 448 Кбит/сек
Каналы : 6 каналов
Расположение каналов : Front: L C R, Side: L R, LFE
Частота : 48,0 КГц
Битовая глубина : 16 бит
Метод сжатия : С потерями
Размер потока : 427 Мбайт (19%)
Выравнивание : Разделение по промежуткам
Продолжительность промежутка : 42 мс. (1,00 видеокадр)
Время предзагрузки промежутка : 500 мс.

Общее
Полное имя : D:VideoAzumi.2003.BDRipAzumi.2003.Original.jpn.ac3
Формат : AC-3
Формат/Информация : Audio Coding 3
Размер файла : 426 Мбайт
Продолжительность : 2 ч. 13 м.
Режим общего битрейта : Постоянный
Общий поток : 448 Кбит/сек

Аудио
Формат : AC-3
Формат/Информация : Audio Coding 3
Расширение режима : CM (complete main)
Параметр Endianness формата : Big
Продолжительность : 2 ч. 13 м.
Вид битрейта : Постоянный
Битрейт : 448 Кбит/сек
Каналы : 6 каналов
Расположение каналов : Front: L C R, Side: L R, LFE
Частота : 48,0 КГц
Битовая глубина : 16 бит
Метод сжатия : С потерями
Размер потока : 426 Мбайт (100%)

Общее
Полное имя : D:VideoAzumi.2003.BDRipAzumi.2003.VO.rus.любительский одноголосый.ac3
Формат : AC-3
Формат/Информация : Audio Coding 3
Размер файла : 183 Мбайт
Продолжительность : 2 ч. 13 м.
Режим общего битрейта : Постоянный
Общий поток : 192 Кбит/сек

Аудио
Формат : AC-3
Формат/Информация : Audio Coding 3
Расширение режима : CM (complete main)
Параметр Endianness формата : Big
Продолжительность : 2 ч. 13 м.
Вид битрейта : Постоянный
Битрейт : 192 Кбит/сек
Каналы : 2 канала
Расположение каналов : Front: L R
Частота : 48,0 КГц
Битовая глубина : 16 бит
Метод сжатия : С потерями
Размер потока : 183 Мбайт (100%)
piratbit.org



Скачать Азуми через торрент http://i65.fastpic.ru/big/2014/0919/67/092b20367c8f298ec60d70346a343167.jpg Скачать фильм Азуми через торрент бесплантно в хорошем качестве Описание: В одном из уединённых монастырей путем жесткого отбора и специальных тренировок создавалась каста профессиональных убийц. Десять ... 10 10 5
Торрент: Зарегистрирован [2014-09-19 05:51] · скачан: 141 раз
Статус: √ проверено
Размер: 2.8 GB
Как cкачать? Как скачать Азуми через торрент | UTorrent

% Раздел Тема Автор DL S | L
Фильмы [HD 720p, 1080p] (Хороший звук DUB, MVO) [ 11.15 GB ] Азуми / Azumi [2003 BDRip 1080p] MVO VO msltel Скачать
1 | 0
Фильмы [HD 720p, 1080p] (Хороший звук DUB, MVO) [ 6.23 GB ] Азуми / Azumi [2003 BDRip 720p] MVO VO msltel Скачать
1 | 0

28-11-2019 20:33  

Отключить всю рекламу на сайте

    Дорогой пользователь! Огромная просьба, поблагодарите релизера, оцените раздачу и оставьте свои комментарий, если Вы скачали Азуми через торрент бесплатно! Внесите свою лепту в развитие PiratBit!
    Комментировать посты могут только пользователи прошедшие не сложную регистрацию
    Показать сообщения:    

    Азуми через торрент
    Скачать бесплатно Азуми
    Азуми скачать торрент
    Азуми смотреть онлайн
    Cкачать фильм Азуми бесплатно
    Азуми скачать торрент в хорошем качестве
    Азуми смотреть онлайн бесплатно в хорошем качестве


    Вы не можете начинать темы
    Вы не можете отвечать на сообщения
    Вы не можете редактировать свои сообщения
    Вы не можете удалять свои сообщения
    Вы не можете голосовать в опросах
    Вы не можете прикреплять файлы к сообщениям
    Вы можете скачивать файлы