Marvel's Avengers Deluxe Edition (супер цена) 159р. Внимание количество ограничено!!!

2 сезон

iTunes

iTunes

1

iTunes

iTunes

iTunes

WEBRip

iTunes

30
pack

Новость дня

ВАЖНО

!!Акция!!

Alien_RageХит недели

RePack

Horizon Zero Dawn

ИГРА 18+

pack

RePack

jed

!!Акция!!

Alien_Rage

RePack

fifa19

RePack

Assassins Creed: Odyssey

RePack

NEED FOR SPEED™ PAYBACK

4 сезон

9 сезон

Бесстыжие 9 сезон

Все сериалы

все сериалы на PB.wtf

RePack

FAR CRY 5
  

Её сердце / A Mighty Heart (Майкл Уинтерботтом / Michael Winterbottom) [2007, США, Великобритания, триллер, драма, военный, HDRip, Профессиональный (двухголосый)] piratbit.org

Её сердце через торрент piratbit.org

Размер: 2.18 GB | Добавлен: 6 лет назад | Торрент скачан:43 раза
Скачать  

19-09-2014 10:34 Её сердце Скачать торрент  

Её сердце / A Mighty Heart«It was an event that shocked the world. This is the story you haven't heard»
Год выпуска: 2007
Страна: США, Великобритания
Жанр: триллер, драма, военный, биография, история
Продолжительность: 01:47:52
Перевод: Профессиональный (двухголосый)
Субтитры: Отсутствует
Режиссер: Майкл Уинтерботтом / Michael Winterbottom
В ролях:


Анджелина Джоли (Mariane Pearl), Дэн Футтерман (Daniel «Danny» Pearl), Ирфан Кхан (Captain), Арчи Панджаби (Asra), Уилл Пэттон (Randall Bennett), Дэнис О’Хэйр (John Bussey), Мохаммед Афзал (Shabbir), Муштак Кхан (Danny's Taxi Driver), Дауд Кхан (Masud the Fixer), Телаль Сэйид (Kaleem Yusuf), Ариф Кхан (Mariane's Taxi Driver), Типу Тахир (Human Rights Director)

Описание:
23 января 2002 года жизнь журналистки Марианы Перл резко изменилась. Ее муж Дэниел Перл, руководитель южно-азиатского бюро нью-йоркского издания Wall Street Journal, занимавшийся в Пакистане поиском материала для статьи о террористе Ричарде Риде, бесследно исчез.
Находившаяся на шестом месяце беременности, Мариана отчаянно пыталась его разыскать. Однако вскоре выяснилось, что он был захвачен боевиками, объявлен израильским шпионом и обезглавлен. Видеозапись казни бандиты передали в СМИ...

Рейтинг:
Бюджет: $16 000 000
MPAA: R - Лицам до 17 лет обязательно присутствие взрослого
Качество: HDRip
Формат: AVI
Видео кодек:XviD
Аудио кодек:AC3
Видео: XviD, 720x304 (2.35:1), 2111 kbps, 23,976 fps, 0,402 bpp
Аудио №1: AC3 / 5.1 / 48 kHz / 384 kbps / 16 bit - русский
Аудио №2: AC3 / 5.1 / 48 kHz / 384 kbps / 16 bit - английский


General
Complete name : D:\Users\_KaisiK_\uTorrent\КИНО\Ee serdce 2007 HDRip.avi
Format : AVI
Format/Info : Audio Video Interleave
Format profile : OpenDML
File size : 2.18 GiB
Duration : 1h 47mn
Overall bit rate : 2 897 Kbps
Movie name : Ее сердце / A Mighty Heart (2007)
Director : Infernum (HDRip 1080)
Writing application : VirtualDubModRus 1.5.10.2 (build 2542/release)
Copyright : HQ-ViDEO (www.hq-video.ru)
Comment : 22.01.2009

Video
ID : 0
Format : MPEG-4 Visual
Format profile : Advanced Simple@L5
Format settings, BVOP : 2
Format settings, QPel : No
Format settings, GMC : No warppoints
Format settings, Matrix : Default (MPEG)
Muxing mode : Packed bitstream
Codec ID : XVID
Codec ID/Hint : XviD
Duration : 1h 47mn
Bit rate : 2 112 Kbps
Width : 720 pixels
Height : 304 pixels
Display aspect ratio : 2.35:1
Frame rate : 23.976 fps
Color space : YUV
Chroma subsampling : 4:2:0
Bit depth : 8 bits
Scan type : Progressive
Compression mode : Lossy
Bits/(Pixel*Frame) : 0.402
Stream size : 1.59 GiB (73%)
Writing library : XviD 1.2.0.dev47 (UTC 2006-11-01)

Audio #1
ID : 1
Format : AC-3
Format/Info : Audio Coding 3
Mode extension : CM (complete main)
Codec ID : 2000
Duration : 1h 47mn
Bit rate mode : Constant
Bit rate : 384 Kbps
Channel(s) : 6 channels
Channel positions : Front: L C R, Side: L R, LFE
Sampling rate : 48.0 KHz
Bit depth : 16 bits
Compression mode : Lossy
Stream size : 296 MiB (13%)
Alignment : Split accross interleaves
Interleave, duration : 42 ms (1.00 video frame)
Interleave, preload duration : 500 ms

Audio #2
ID : 2
Format : AC-3
Format/Info : Audio Coding 3
Mode extension : CM (complete main)
Codec ID : 2000
Duration : 1h 47mn
Bit rate mode : Constant
Bit rate : 384 Kbps
Channel(s) : 6 channels
Channel positions : Front: L C R, Side: L R, LFE
Sampling rate : 48.0 KHz
Bit depth : 16 bits
Compression mode : Lossy
Stream size : 296 MiB (13%)
Alignment : Split accross interleaves
Interleave, duration : 42 ms (1.00 video frame)
Interleave, preload duration : 500 ms

[/code]
piratbit.org



Скачать Её сердце через торрент http://i4.imageban.ru/out/2014/09/19/3c47facb94d29e1f14fb9075fa43832a.jpg Скачать фильм Её сердце через торрент бесплантно в хорошем качестве Описание: 23 января 2002 года жизнь журналистки Марианы Перл резко изменилась. Ее муж Дэниел Перл, руководитель южно-азиатского бюро ... 10 10 3
Торрент: Зарегистрирован [2014-09-19 10:34] · скачан: 43 раз
Статус: √ проверено
Размер: 2.18 GB
Как cкачать? Как скачать Её сердце через торрент | qTorrent

% Раздел Тема Автор DL S | L
Фильмы [HD 720p, 1080p] (Хороший звук DUB, MVO) [ 10.32 GB ] Её сердце / A Mighty Heart [2007 военный биография история BDRip 1080p] DVO msltel Скачать
1 | 0
Фильмы [HD 720p, 1080p] (Хороший звук DUB, MVO) [ 4.77 GB ] Её сердце / A Mighty Heart [2007 военный биография история BDRip 720p] DVO msltel Скачать
1 | 0

28-11-2019 20:33  

Отключить всю рекламу на сайте

    Дорогой пользователь! Огромная просьба, поблагодарите релизера, оцените раздачу и оставьте свои комментарий, если Вы скачали Её сердце через торрент бесплатно! Внесите свою лепту в развитие PiratBit!
    Комментировать посты могут только пользователи прошедшие не сложную регистрацию
    Показать сообщения:    

    Её сердце через торрент
    Скачать бесплатно Её сердце
    Её сердце скачать торрент
    Её сердце смотреть онлайн
    Cкачать фильм Её сердце бесплатно
    Её сердце скачать торрент в хорошем качестве
    Её сердце смотреть онлайн бесплатно в хорошем качестве


    Вы не можете начинать темы
    Вы не можете отвечать на сообщения
    Вы не можете редактировать свои сообщения
    Вы не можете удалять свои сообщения
    Вы не можете голосовать в опросах
    Вы не можете прикреплять файлы к сообщениям
    Вы можете скачивать файлы