1 сезон

iTunes

iTunes

1

Line

MVO

iTunes

13

1 сезон

RePack

30

Deluxe

pack

Лицензия

ВАЖНО

ИГРА 18+

pack

RePack

MK11

RePack

jed

RePack

fifa19

RePack

RDR2

RePack

NEED FOR SPEED™ PAYBACK

4 сезон

9 сезон

Бесстыжие 9 сезон

Все сериалы

все сериалы на PB.wtf

RePack

FAR CRY 5

Anonymous, доброе утро, мы катастрофически не успеваем собрать деньги на оплату серверов, помогите нам пожалуйста 5,10,15р., для нас важна любая помощь . В качестве благодарности мы отключим Вам всю рекламу на сайте (укажите свой ник в строку Ваше имя)!

×
  
Magnet ссылка

Ловец снов / Dreamcatcher (Лоуренс Кэздан) [2003г., Ужасы, фантастика, триллер, драма, BDRip] DUB, MVO, AVO piratbit.org

Ловец снов через торрент piratbit.org

Размер: 2.98 GB | Добавлен: 6 лет 10 мес. назад | Торрент скачан:151 раз
Скачать  

20-09-2014 04:12 Ловец снов Скачать торрент  

Ловец снов / Dreamcatcher
Релиз от: msltel

Год выпуска: 2003
Страна: США, Австралия
Жанр: Ужасы, фантастика, триллер, драма
Продолжительность: 02:13:46
Перевод: Дублированный, профессиональный многоголосый, авторский
Субтитры: Русские, английские (все отдельно)

Режиссёр: Лоуренс Кэздан

В ролях: Морган Фримен, Томас Джейн, Джейсон Ли, Дэмиэн Льюис, Тимоти Олифант, Том Сайзмор, Донни Уолберг, Майки Хоулкамп, Рис Томпсон, Джакомо Бессато

Описание: Джонси, Генри, Пит и Бивер. Двадцать лет назад они были просто мальчишками, проживающими в одном небольшом городке штата Мэн, — детьми, нашедшими в себе достаточно мужества, чтобы героически ответить на детскую жестокость. Награда за спасение странноватого мальчика по имени Даддитс совершенно неожиданно пришла к ним в виде сверхъестественных сил, связавших всех пятерых крепчайшими узами братства. Когда на ежегодной охоте друзья собираются вместе в лесной хижине, вместо ожидаемой теплой весёлой атмосферы над ними начинает сгущаться абсолютное зло, приносящее гибель. Сначала к ним попадает незнакомец, затерявшийся в лесу охотник, которому и невдомёк, что его организм поражён смертельной заразой. А вслед за ним возникает неистовствующий снежный буран, в эпицентре которого движется нечто ещё более зловещее… Впереди — крупнейшее противостояние ужасу, не имеющему аналогов.



Качество: BDRip [Исходник от Dreamcatcher] Сравнение с исходником
Формат: AVI
Видео кодек: XviD
Аудио кодек: AC3
Видео: 720х304, 1580 kbps, 23.976 кадра/сек
Аудио 1: русский, AC3, 192 kbps, 2 ch, 48 kHz [Дублированный]
Аудио 2: русский, AC3, 192 kbps, 2 ch, 48 kHz [Профессиональный многоголосый, РТР]

Отдельные файлы
Аудио: русский, AC3, 384 kbps, 6 ch, 48 kHz [Авторский, Андрей Гаврилов]
Аудио: русский, AC3, 384 kbps, 6 ch, 48 kHz [Авторский, Юрий Живов]
Аудио: английский, AC3, 448 kbps, 6 ch, 48 kHz [Оригинал]
Общее
Полное имя : D:\Video\Lovec snov.2003.BDRip\Lovec snov.2003.AVO.rus.А.Гаврилов.ac3
Формат : AC-3
Формат/Информация : Audio Coding 3
Размер файла : 367 Мбайт
Продолжительность : 2 ч. 13 м.
Режим общего битрейта : Постоянный
Общий поток : 384 Кбит/сек

Аудио
Формат : AC-3
Формат/Информация : Audio Coding 3
Расширение режима : CM (complete main)
Параметр Endianness формата : Big
Продолжительность : 2 ч. 13 м.
Вид битрейта : Постоянный
Битрейт : 384 Кбит/сек
Каналы : 6 каналов
Расположение каналов : Front: L C R, Side: L R, LFE
Частота : 48,0 КГц
Битовая глубина : 16 бит
Метод сжатия : С потерями
Размер потока : 367 Мбайт (100%)

Общее
Полное имя : D:\Video\Lovec snov.2003.BDRip\Lovec snov.2003.AVO.rus.Ю.Живов.ac3
Формат : AC-3
Формат/Информация : Audio Coding 3
Размер файла : 367 Мбайт
Продолжительность : 2 ч. 13 м.
Режим общего битрейта : Постоянный
Общий поток : 384 Кбит/сек

Аудио
Формат : AC-3
Формат/Информация : Audio Coding 3
Расширение режима : CM (complete main)
Параметр Endianness формата : Big
Продолжительность : 2 ч. 13 м.
Вид битрейта : Постоянный
Битрейт : 384 Кбит/сек
Каналы : 6 каналов
Расположение каналов : Front: L C R, Side: L R, LFE
Частота : 48,0 КГц
Битовая глубина : 16 бит
Метод сжатия : С потерями
Размер потока : 367 Мбайт (100%)

Общее
Полное имя : D:\Video\Lovec snov.2003.BDRip\Lovec snov.2003.BDRip.avi
Формат : AVI
Формат/Информация : Audio Video Interleave
Размер файла : 1,85 Гбайт
Продолжительность : 2 ч. 13 м.
Общий поток : 1978 Кбит/сек
Программа кодирования : VirtualDubMod 1.5.10.2 (build 2540/release)
Библиотека кодирования : VirtualDubMod build 2540/release

Видео
Идентификатор : 0
Формат : MPEG-4 Visual
Профиль формата : Advanced Simple@L5
Параметр BVOP формата : 1
Параметр QPel формата : Нет
Параметр GMC формата : Без точки перехода
Параметр матрицы формата : Default (H.263)
Режим смешивания : Сжатый битовый поток
Идентификатор кодека : XVID
Идентификатор кодека/Подсказка : XviD
Продолжительность : 2 ч. 13 м.
Битрейт : 1580 Кбит/сек
Ширина : 720 пикселей
Высота : 304 пикселя
Соотношение сторон : 2,35:1
Частота кадров : 23,976 кадра/сек
Цветовое пространство : YUV
Субдискретизация насыщенности : 4:2:0
Битовая глубина : 8 бит
Тип развёртки : Прогрессивная
Метод сжатия : С потерями
Бит/(Пиксели*Кадры) : 0.301
Размер потока : 1,48 Гбайт (80%)
Библиотека кодирования : XviD 1.2.1 (UTC 2008-12-04)

Аудио #1
Идентификатор : 1
Формат : AC-3
Формат/Информация : Audio Coding 3
Профиль формата : Dolby Digital
Расширение режима : CM (complete main)
Параметр Endianness формата : Big
Идентификатор кодека : 2000
Продолжительность : 2 ч. 13 м.
Вид битрейта : Постоянный
Битрейт : 192 Кбит/сек
Каналы : 2 канала
Расположение каналов : Front: L R
Частота : 48,0 КГц
Битовая глубина : 16 бит
Метод сжатия : С потерями
Размер потока : 184 Мбайт (10%)
Выравнивание : Разделение по промежуткам
Продолжительность промежутка : 42 мс. (1,00 видеокадр)
Время предзагрузки промежутка : 500 мс.

Аудио #2
Идентификатор : 2
Формат : AC-3
Формат/Информация : Audio Coding 3
Расширение режима : CM (complete main)
Параметр Endianness формата : Big
Идентификатор кодека : 2000
Продолжительность : 2 ч. 13 м.
Вид битрейта : Постоянный
Битрейт : 192 Кбит/сек
Каналы : 2 канала
Расположение каналов : Front: L R
Частота : 48,0 КГц
Битовая глубина : 16 бит
Метод сжатия : С потерями
Размер потока : 184 Мбайт (10%)
Выравнивание : Разделение по промежуткам
Продолжительность промежутка : 42 мс. (1,00 видеокадр)
Время предзагрузки промежутка : 500 мс.

Общее
Полное имя : D:\Video\Lovec snov.2003.BDRip\Lovec snov.2003.eng.srt
Размер файла : 83,2 Кбайт

Общее
Полное имя : D:\Video\Lovec snov.2003.BDRip\Lovec snov.2003.Original.eng.ac3
Формат : AC-3
Формат/Информация : Audio Coding 3
Размер файла : 429 Мбайт
Продолжительность : 2 ч. 13 м.
Режим общего битрейта : Постоянный
Общий поток : 448 Кбит/сек

Аудио
Формат : AC-3
Формат/Информация : Audio Coding 3
Расширение режима : CM (complete main)
Параметр Endianness формата : Big
Продолжительность : 2 ч. 13 м.
Вид битрейта : Постоянный
Битрейт : 448 Кбит/сек
Каналы : 6 каналов
Расположение каналов : Front: L C R, Side: L R, LFE
Частота : 48,0 КГц
Битовая глубина : 16 бит
Метод сжатия : С потерями
Размер потока : 429 Мбайт (100%)

Общее
Полное имя : D:\Video\Lovec snov.2003.BDRip\Lovec snov.2003.rus.srt
Формат : SubRip
Размер файла : 80,6 Кбайт

Текст
Формат : SubRip
Метод сжатия : Без потерь
piratbit.org



Скачать Ловец снов через торрент http://i65.fastpic.ru/big/2014/0920/f5/edfea5d0f7b191252bc6f868999db6f5.jpg Скачать фильм Ловец снов через торрент бесплантно в хорошем качестве Описание: Джонси, Генри, Пит и Бивер. Двадцать лет назад они были просто мальчишками, проживающими в одном небольшом городке штата Мэн, — ... 9.7 10 7
Торрент: Зарегистрирован [2014-09-20 04:12] · скачан: 151 раз
Статус: √ проверено
Размер: 2.98 GB
Как cкачать? Как скачать Ловец снов через торрент | UTorrent

% Раздел Тема Автор DL S | L
Фильмы [HD 720p, 1080p] (Хороший звук DUB, MVO) [ 8.59 GB ] Ловец снов / Dreamcatcher [2003 BDRip-HEVC 1080p ] DUB+MVO+DVO+2xAVO bober100 Скачать
1 | 0
Фильмы (Blu-ray, BD-Remux, HDDVD) [ 43.6 GB ] Ловец снов / Dreamcatcher [2003 BD Remux 1080p] DUB+2xDVO+5xAVO+3xMVO bober100 Скачать
1 | 0
Фильмы [HD 720p, 1080p] (Хороший звук DUB, MVO) [ 5.66 GB ] Ловец снов / Dreamcatcher [2003 BDRip 720p] DUB MVO AVO msltel Скачать
1 | 0
Фильмы [HD 720p, 1080p] (Хороший звук DUB, MVO) [ 12.26 GB ] Ловец снов / Dreamcatcher [2003 BDRip 1080p] DUB MVO AVO msltel Скачать
1 | 0

28-11-2019 20:33  

Отключить всю рекламу на сайте

    Дорогой пользователь! Огромная просьба, поблагодарите релизера, оцените раздачу и оставьте свои комментарий, если Вы скачали Ловец снов через торрент бесплатно! Внесите свою лепту в развитие PiratBit!
    Комментировать посты могут только пользователи прошедшие не сложную регистрацию
    Показать сообщения:    

    Ловец снов через торрент
    Скачать бесплатно Ловец снов
    Ловец снов скачать торрент
    Ловец снов смотреть онлайн
    Cкачать фильм Ловец снов бесплатно
    Ловец снов скачать торрент в хорошем качестве
    Ловец снов смотреть онлайн бесплатно в хорошем качестве


    Вы не можете начинать темы
    Вы не можете отвечать на сообщения
    Вы не можете редактировать свои сообщения
    Вы не можете удалять свои сообщения
    Вы не можете голосовать в опросах
    Вы не можете прикреплять файлы к сообщениям
    Вы можете скачивать файлы