2 сезон

iTunes

WEBRip

1

2 сезон

iTunes

1 сезон

1 сезон

RePack

30

Новинка

ВАЖНО

ИГРА 18+

pack

RePack

MK11
pack

Легкие деньги

RePack

jed

RePack

fifa19

RePack

RDR2

RePack

NEED FOR SPEED™ PAYBACK

4 сезон

9 сезон

Бесстыжие 9 сезон

Все сериалы

все сериалы на PB.wtf

RePack

FAR CRY 5

Anonymous, добрый день, мы не успеваем собрать деньги на оплату серверов за февраль, помогите нам пожалуйста в это трудное время. В качестве благодарности мы отключим Вам всю рекламу на сайте (укажите свой ник в строку Ваше имя)!

×
  
Magnet ссылка

Тени незабытых предков / Тіні незабутих предків (Любомир Левицкий) [2013, фэнтези, мистика, триллер, детектив, приключения, SATRip] piratbit.org

Тени незабытых предков через торрент piratbit.org

Размер: 1.46 GB | Добавлен: 6 лет 5 мес. назад | Торрент скачан:387 раз
Скачать  

25-09-2014 15:24 Тени незабытых предков Скачать торрент  

Тени незабытых предков / Тіні незабутих предків
«А ты уверен, что ты человек?»

Год выпуска: 2013
Страна: Украина
Жанр:фэнтези, триллер, детектив, приключения
Продолжительность:01:42:08
Перевод:Оригинальный Украинский
Режиссер:Любомир Левицкий

  • В ролях:

    Алена Мусиенко (Анжела), Богдан Юсипчук, Ольга Фреймут, Дмитрий Ступка, Владислав Никитюк, Павел Ли, Софа Галабурад, Марина Шако, Роксолана Кравчук, Ольга Сумская, Юрий Расстальной, Валерий Легин

  • Описание:
    Несколько столетий назад в украинских Карпатах бесчинствовали злые духи и прочие химеры. Тогда девять магов запечатали потустороннюю нечисть в Книгу Теней и заклеймили ее магической Згардою. С того времени Згарда находилась в безопасном месте, надежно оберегая вход в наш мир от злых духов. Однако волею судьбы Згарду найдено и передано университету, после чего жизнь некоторых студентов изменилась навсегда. Спасти студентов и уничтожить зло сможет только потомок последнего колдуна - мольфара.

  • Мировая премьера:14 ноября 2013

    Качество: SATRip
    Формат:AVI
    Видео кодек: XviD
    Аудио кодек:MPEG-1 Audio layer 2
    Видео: XviD, 720x304 (2.35:1), 1838 kbps, 25 fps, 0,336 bpp
    Аудио: MPEG-1 Audio layer 2 / 2.0 / 48 kHz / 192 kbps /


    Код:

    General
    Complete name                            : D:\Торенты\Teni nezabutuh predkov.avi
    Format                                   : AVI
    Format/Info                              : Audio Video Interleave
    File size                                : 1.46 GiB
    Duration                                 : 1h 42mn
    Overall bit rate                         : 2 041 Kbps
    Writing application                      : VirtualDubMod 1.5.10.3 | www.virtualdub-fr.org || (build 2550/release)
    Writing library                          : VirtualDubMod build 2550/release

    Video
    ID                                       : 0
    Format                                   : MPEG-4 Visual
    Format profile                           : Advanced Simple@L5
    Format settings, BVOP                    : 1
    Format settings, QPel                    : No
    Format settings, GMC                     : No warppoints
    Format settings, Matrix                  : Default (MPEG)
    Codec ID                                 : XVID
    Codec ID/Hint                            : XviD
    Duration                                 : 1h 42mn
    Bit rate                                 : 1 839 Kbps
    Width                                    : 720 pixels
    Height                                   : 304 pixels
    Display aspect ratio                     : 2.35:1
    Frame rate                               : 25.000 fps
    Color space                              : YUV
    Chroma subsampling                       : 4:2:0
    Bit depth                                : 8 bits
    Scan type                                : Progressive
    Compression mode                         : Lossy
    Bits/(Pixel*Frame)                       : 0.336
    Stream size                              : 1.31 GiB (90%)
    Writing library                          : XviD 1.2.1 (UTC 2008-12-04)

    Audio
    ID                                       : 1
    Format                                   : MPEG Audio
    Format version                           : Version 1
    Format profile                           : Layer 2
    Codec ID                                 : 50
    Duration                                 : 1h 42mn
    Bit rate mode                            : Constant
    Bit rate                                 : 192 Kbps
    Channel(s)                               : 2 channels
    Sampling rate                            : 48.0 KHz
    Compression mode                         : Lossy
    Stream size                              : 140 MiB (9%)
    Alignment                                : Aligned on interleaves
    Interleave, duration                     : 40 ms (1.00 video frame)
    Interleave, preload duration             : 504 ms

    Скриншоты:



    © Оформление by Ravenpiratbit.org



  • Скачать Тени незабытых предков через торрент https://pic.kartinco.top/images/6/stazu.jpg Скачать фильм Тени незабытых предков через торрент бесплантно в хорошем качестве Описание:Несколько столетий назад в украинских Карпатах бесчинствовали злые духи и прочие химеры. Тогда девять магов запечатали ... 7.8 10 29
    Info! Золотая раздача, скачанное не засчитывается.
    Торрент: Зарегистрирован [2014-09-25 15:24] · скачан: 387 раз
    Статус: √ проверено
    Размер: 1.46 GB
    Как cкачать? Как скачать Тени незабытых предков через торрент | UTorrent

    % Раздел Тема Автор DL S | L
    Фильмы с украинским озвучиванием [ 2.43 GB ] Тени незабытых предков / Тіні незабутих предків [2013 SATRemux] Ворон Скачать
    1 | 0

    28-11-2019 20:33  

    Отключить всю рекламу на сайте

    25-09-2014 16:43 Тени незабытых предков Скачать торрент  

    Фильм "на троечку".piratbit.org



    25-09-2014 21:40 Тени незабытых предков Скачать торрент  

    дякую=)piratbit.org



    26-09-2014 13:38 Тени незабытых предков Скачать торрент  

    Асилум всяко будет лучше...piratbit.org



    12-10-2014 10:57 Тени незабытых предков Скачать торрент  

    Фильм стоит посмотреть и не только ради нескольких открытых тем)piratbit.org



      Дорогой пользователь! Огромная просьба, поблагодарите релизера, оцените раздачу и оставьте свои комментарий, если Вы скачали Тени незабытых предков через торрент бесплатно! Внесите свою лепту в развитие PiratBit!
      Комментировать посты могут только пользователи прошедшие не сложную регистрацию
      Показать сообщения:    

      Тени незабытых предков через торрент
      Скачать бесплатно Тени незабытых предков
      Тени незабытых предков скачать торрент
      Тени незабытых предков смотреть онлайн
      Cкачать фильм Тени незабытых предков бесплатно
      Тени незабытых предков скачать торрент в хорошем качестве
      Тени незабытых предков смотреть онлайн бесплатно в хорошем качестве


      Вы не можете начинать темы
      Вы не можете отвечать на сообщения
      Вы не можете редактировать свои сообщения
      Вы не можете удалять свои сообщения
      Вы не можете голосовать в опросах
      Вы не можете прикреплять файлы к сообщениям
      Вы можете скачивать файлы