2 сезон

iTunes

WEBRip

1

2 сезон

iTunes

1 сезон

1 сезон

RePack

30

Ultimate

ВАЖНО

ИГРА 18+

pack

RePack

MK11
pack

Легкие деньги

RePack

jed

RePack

fifa19

RePack

RDR2

RePack

NEED FOR SPEED™ PAYBACK

4 сезон

9 сезон

Бесстыжие 9 сезон

Все сериалы

все сериалы на PB.wtf

RePack

FAR CRY 5

Anonymous, добрый вечер, мы не успеваем собрать деньги на оплату серверов за февраль, помогите нам пожалуйста в это трудное время. В качестве благодарности мы отключим Вам всю рекламу на сайте (укажите свой ник в строку Ваше имя)!

×
  
Magnet ссылка

Тот, кто прошел сквозь огонь / Той, хто пройшов крізь вогонь(Михаил Ильенко) [2011, драма, приключения, биография, DVDRip, Оригинальное (русский) [лицензия] piratbit.org

Тот, кто прошел сквозь огонь через торрент piratbit.org

Размер: 1.37 GB | Добавлен: 6 лет 4 мес. назад | Торрент скачан:276 раз
Скачать  

25-09-2014 23:21 Тот, кто прошел сквозь огонь Скачать торрент  

Тот, кто прошел сквозь огонь / Той, хто пройшов крізь вогонь


Год выпуска: 2011
Страна: Украина
Жанр:драма, приключения, биография
Продолжительность:01:45:18
Перевод:Оригинальное (русский) [лицензия]
Субтитры: Ukrainian
Режиссер:Михаил Ильенко

  • В ролях:

    Дмитро Линартович (Иван Додока), Виктор Андриенко (полковник Смирнов), Ольга Гришина (Люба Каримова), Александр Игнатуша, Ивана Ильенко (Тень Ласточки), Алексей Колесник (индеец), Виталий Линецкий (Степан Шулика)

  • Описание:
    Когда советский летчик Иван Додока бежал из немецкого плена, он был обвинен в государственной измене и сослан в сталинские лагеря. Иван убегает. На него начинается охота, что лишает героя надежды на встречу с любимой, и, в конечном счете, самой Родины. .. Основанная на реальных событиях, эта история ведет зрителя через ряд приключений, превращающие летчика и Героя Советского Союза в узника ГУЛАГа, а впоследствии переносят его к индейскому племени в Канаде. Там Иван получает свое новое имя - Тотктопрошелсквозьогонь.

  • Мировая премьера:21 сентября 2011

    Дополнительно:
    Местами присутствует украинская речь

    Качество: DVDRip
    Формат:AVI
    Видео кодек: DivX 5
    Аудио кодек:AC3
    Видео: DivX 5, 720x400 (16:9), 1409 kbps, 25 fps, 0,196 bpp
    Аудио: AC3 / 5.1 / 48 kHz / 448 kbps / 16 bit


    Код:

    General
    Complete name                            : D:\Торенты\ToyXtoProyshovKrizVogon.2011.O.DVDRip.1400Mb.avi
    Format                                   : AVI
    Format/Info                              : Audio Video Interleave
    File size                                : 1.37 GiB
    Duration                                 : 1h 45mn
    Overall bit rate                         : 1 866 Kbps
    Writing application                      : VirtualDubMod 1.5.10.3 | www.virtualdub-fr.org || (build 2550/release)
    Writing library                          : VirtualDubMod build 2550/release

    Video
    ID                                       : 0
    Format                                   : MPEG-4 Visual
    Format profile                           : Advanced Simple@L5
    Format settings, BVOP                    : 1
    Format settings, QPel                    : No
    Format settings, GMC                     : No warppoints
    Format settings, Matrix                  : Default (MPEG)
    Codec ID                                 : DX50
    Codec ID/Hint                            : DivX 5
    Duration                                 : 1h 45mn
    Bit rate                                 : 1 410 Kbps
    Width                                    : 720 pixels
    Height                                   : 400 pixels
    Display aspect ratio                     : 16:9
    Frame rate                               : 25.000 fps
    Color space                              : YUV
    Chroma subsampling                       : 4:2:0
    Bit depth                                : 8 bits
    Scan type                                : Progressive
    Compression mode                         : Lossy
    Bits/(Pixel*Frame)                       : 0.196
    Stream size                              : 1.04 GiB (76%)
    Writing library                          : XviD 1.2.1 (UTC 2008-12-04)

    Audio
    ID                                       : 1
    Format                                   : AC-3
    Format/Info                              : Audio Coding 3
    Mode extension                           : CM (complete main)
    Codec ID                                 : 2000
    Duration                                 : 1h 44mn
    Bit rate mode                            : Constant
    Bit rate                                 : 448 Kbps
    Channel(s)                               : 6 channels
    Channel positions                        : Front: L C R, Side: L R, LFE
    Sampling rate                            : 48.0 KHz
    Bit depth                                : 16 bits
    Compression mode                         : Lossy
    Stream size                              : 336 MiB (24%)
    Alignment                                : Split accross interleaves
    Interleave, duration                     : 40 ms (1.00 video frame)
    Interleave, preload duration             : 500 ms

    Скриншоты:



    © Оформление by Ravenpiratbit.org



  • Скачать Тот, кто прошел сквозь огонь через торрент https://pic.kartinco.top/images/6/stazu.jpg Скачать фильм Тот, кто прошел сквозь огонь через торрент бесплантно в хорошем качестве Описание:Когда советский летчик Иван Додока бежал из немецкого плена, он был обвинен в государственной измене и сослан в сталинские лагеря. ... 9 10 9
    Торрент: Зарегистрирован [2014-09-25 23:21] · скачан: 276 раз
    Статус: √ проверено
    Размер: 1.37 GB
    Как cкачать? Как скачать Тот, кто прошел сквозь огонь через торрент | UTorrent

    % Раздел Тема Автор DL S | L
    Наши фильмы (DVD фильмы) [ 7.52 GB ] Тот кто прошел сквозь огонь / Той хто пройшов крізь вогонь [2011 биография DVD9] R5 voovaz Скачать
    1 | 0

    28-11-2019 20:33  

    Отключить всю рекламу на сайте

    26-09-2014 05:41 Тот, кто прошел сквозь огонь Скачать торрент  

    сюжетик!!! rofl Это в чью воспалённую голову могло придти такое то?....Герой Советского Союза-Индеец!!!! piratbit.org



    26-09-2014 06:42 Тот, кто прошел сквозь огонь Скачать торрент  

    Stopper68 писал(а):

    [qpost=undefined]Герой Советского Союза-Индеец!!!!

    Надо смотреть так не понять..фильм отличный.piratbit.org



    06-11-2014 22:47 Тот, кто прошел сквозь огонь Скачать торрент  

    Stopper68 писал(а):

    сюжетик!!! rofl Это в чью воспалённую голову могло придти такое то?....Герой Советского Союза-Индеец!!!!

    так это по сути по реальной истории снят фильм. так что тут нету никакого такого больного вымысла.piratbit.org



    23-03-2016 20:47 Тот, кто прошел сквозь огонь Скачать торрент  

    СПАСИБО Вам!piratbit.org



      Дорогой пользователь! Огромная просьба, поблагодарите релизера, оцените раздачу и оставьте свои комментарий, если Вы скачали Тот, кто прошел сквозь огонь через торрент бесплатно! Внесите свою лепту в развитие PiratBit!
      Комментировать посты могут только пользователи прошедшие не сложную регистрацию
      Показать сообщения:    

      Тот, кто прошел сквозь огонь через торрент
      Скачать бесплатно Тот, кто прошел сквозь огонь
      Тот, кто прошел сквозь огонь скачать торрент
      Тот, кто прошел сквозь огонь смотреть онлайн
      Cкачать фильм Тот, кто прошел сквозь огонь бесплатно
      Тот, кто прошел сквозь огонь скачать торрент в хорошем качестве
      Тот, кто прошел сквозь огонь смотреть онлайн бесплатно в хорошем качестве


      Вы не можете начинать темы
      Вы не можете отвечать на сообщения
      Вы не можете редактировать свои сообщения
      Вы не можете удалять свои сообщения
      Вы не можете голосовать в опросах
      Вы не можете прикреплять файлы к сообщениям
      Вы можете скачивать файлы