2 сезон

iTunes

WEBRip

1

2 сезон

iTunes

1 сезон

1 сезон

RePack

30

Новинка

ВАЖНО

ИГРА 18+

pack

RePack

MK11
pack

Легкие деньги

RePack

jed

RePack

fifa19

RePack

RDR2

RePack

NEED FOR SPEED™ PAYBACK

4 сезон

9 сезон

Бесстыжие 9 сезон

Все сериалы

все сериалы на PB.wtf

RePack

FAR CRY 5

Anonymous, добрый день, мы не успеваем собрать деньги на оплату серверов за февраль, помогите нам пожалуйста в это трудное время. В качестве благодарности мы отключим Вам всю рекламу на сайте (укажите свой ник в строку Ваше имя)!

×
  
Magnet ссылка

Тени незабытых предков / Тіні незабутих предків (Любомир Левицкий) [2013, фэнтези, мистика, триллер, детектив, приключения, SATRemux] piratbit.org

Тени незабытых предков через торрент piratbit.org

Размер: 2.43 GB | Добавлен: 6 лет 5 мес. назад | Торрент скачан:163 раза
Скачать  

25-09-2014 23:25 Тени незабытых предков Скачать торрент  

Тени незабытых предков
«А ты уверен, что ты человек?»

Год выпуска: 2013
Страна: Украина
Жанр:фэнтези, триллер, детектив, приключения
Продолжительность:01:42:08
Перевод:Оригинальный Украинский
Режиссер:Любомир Левицкий

  • В ролях:

    Алена Мусиенко (Анжела), Богдан Юсипчук, Ольга Фреймут, Дмитрий Ступка, Владислав Никитюк, Павел Ли, Софа Галабурад, Марина Шако, Роксолана Кравчук, Ольга Сумская, Юрий Расстальной, Валерий Легин

  • Описание:
    Несколько столетий назад в украинских Карпатах бесчинствовали злые духи и прочие химеры. Тогда девять магов запечатали потустороннюю нечисть в Книгу Теней и заклеймили ее магической Згардою. С того времени Згарда находилась в безопасном месте, надежно оберегая вход в наш мир от злых духов. Однако волею судьбы Згарду найдено и передано университету, после чего жизнь некоторых студентов изменилась навсегда. Спасти студентов и уничтожить зло сможет только потомок последнего колдуна - мольфара.

  • Мировая премьера:14 ноября 2013

    Качество: SATRemux
    Формат:MPEG-PS
    Видео кодек: MPEG-2 Video
    Аудио кодек:MPEG-1 Audio layer 2
    Видео: 720x576 (4:3), 3141 kbps, 25 fps,
    Аудио: MPEG-1 Audio layer 2 / 2.0 / 48 kHz / 192 kbps /
    Навигация по главам: есть


    Код:

    General
    Complete name                            : D:\Торенты\Тіні незабутих предків (2013) SATRemux [Hurtom].mpg
    Format                                   : MPEG-PS
    File size                                : 2.43 GiB
    Duration                                 : 1h 42mn
    Overall bit rate mode                    : Variable
    Overall bit rate                         : 3 401 Kbps
    Writing library                          : (dvd5: May 29 2014)

    Video
    ID                                       : 224 (0xE0)
    Format                                   : MPEG Video
    Format version                           : Version 2
    Format profile                           : Main@Main
    Format settings, BVOP                    : Yes
    Format settings, Matrix                  : Custom
    Duration                                 : 1h 42mn
    Bit rate mode                            : Variable
    Bit rate                                 : 3 141 Kbps
    Maximum bit rate                         : 15.0 Mbps
    Width                                    : 720 pixels
    Height                                   : 576 pixels
    Display aspect ratio                     : 4:3
    Frame rate                               : 25.000 fps
    Standard                                 : PAL
    Color space                              : YUV
    Chroma subsampling                       : 4:2:0
    Bit depth                                : 8 bits
    Scan type                                : Interlaced
    Scan order                               : Top Field First
    Compression mode                         : Lossy
    Bits/(Pixel*Frame)                       : 0.303
    Stream size                              : 2.24 GiB (92%)
    Writing library                          : (dvd5: May 29 2014)

    Audio
    ID                                       : 192 (0xC0)
    Format                                   : MPEG Audio
    Format version                           : Version 1
    Format profile                           : Layer 2
    Duration                                 : 1h 42mn
    Bit rate mode                            : Constant
    Bit rate                                 : 192 Kbps
    Channel(s)                               : 2 channels
    Sampling rate                            : 48.0 KHz
    Compression mode                         : Lossy
    Delay relative to video                  : -40ms
    Stream size                              : 140 MiB (6%)

    Menu

    Скриншоты:



    © Оформление by Ravenpiratbit.org



  • Скачать Тени незабытых предков через торрент https://pic.kartinco.top/images/6/stazu.jpg Скачать фильм Тени незабытых предков через торрент бесплантно в хорошем качестве Описание:Несколько столетий назад в украинских Карпатах бесчинствовали злые духи и прочие химеры. Тогда девять магов запечатали ... 6.1 10 17
    Торрент: Зарегистрирован [2014-09-25 23:25] · скачан: 163 раз
    Статус: √ проверено
    Размер: 2.43 GB
    Как cкачать? Как скачать Тени незабытых предков через торрент | UTorrent

    % Раздел Тема Автор DL S | L
    Фильмы с украинским озвучиванием [ 1.46 GB ] Тени незабытых предков / Тіні незабутих предків [2013 SATRip] Ворон Скачать
    1 | 0

    28-11-2019 20:33  

    Отключить всю рекламу на сайте

    26-09-2014 05:49 Тени незабытых предков Скачать торрент  

    а с русским дубляжем будет?piratbit.org



    26-09-2014 10:02 Тени незабытых предков Скачать торрент  

    ВОЙНОВ АНДРЕЙ, нетpiratbit.org



    26-09-2014 10:51 Тени незабытых предков Скачать торрент  

    ВОЙНОВ АНДРЕЙ, не розумієшь українську мову,не дивись )piratbit.org



    12-10-2014 11:46 Тени незабытых предков Скачать торрент  

    Спасибо!piratbit.org



    17-10-2014 10:23 Тени незабытых предков Скачать торрент  

    Dimonstein писал(а):

    ВОЙНОВ АНДРЕЙ, не розумієшь українську мову,не дивись )

    И что тогда твоя ридна мова делает в разделе Русские фильмы?
    Так что Не понтуйся! А обьясни человеку по нормальному.

    У фильмов нет границ.

    С Уважением!piratbit.org



    01-11-2014 22:38 Тени незабытых предков Скачать торрент  

    На мове и ужастик настроение поднимает - камедь :)piratbit.org



      Дорогой пользователь! Огромная просьба, поблагодарите релизера, оцените раздачу и оставьте свои комментарий, если Вы скачали Тени незабытых предков через торрент бесплатно! Внесите свою лепту в развитие PiratBit!
      Комментировать посты могут только пользователи прошедшие не сложную регистрацию
      Показать сообщения:    

      Тени незабытых предков через торрент
      Скачать бесплатно Тени незабытых предков
      Тени незабытых предков скачать торрент
      Тени незабытых предков смотреть онлайн
      Cкачать фильм Тени незабытых предков бесплатно
      Тени незабытых предков скачать торрент в хорошем качестве
      Тени незабытых предков смотреть онлайн бесплатно в хорошем качестве


      Вы не можете начинать темы
      Вы не можете отвечать на сообщения
      Вы не можете редактировать свои сообщения
      Вы не можете удалять свои сообщения
      Вы не можете голосовать в опросах
      Вы не можете прикреплять файлы к сообщениям
      Вы можете скачивать файлы