1 сезон

3 сезон

iTunes

1

iTunes

MVO

iTunes

13

1 сезон

RePack

30

Deluxe

pack

Лицензия

ВАЖНО

ИГРА 18+

pack

RePack

MK11

RePack

jed

RePack

fifa19

RePack

RDR2

RePack

NEED FOR SPEED™ PAYBACK

4 сезон

9 сезон

Бесстыжие 9 сезон

Все сериалы

все сериалы на PB.wtf

RePack

FAR CRY 5

Anonymous, добрый вечер, мы катастрофически не успеваем собрать деньги на оплату серверов, помогите нам пожалуйста 5,10,15р., для нас важна любая помощь . В качестве благодарности мы отключим Вам всю рекламу на сайте (укажите свой ник в строку Ваше имя)!

×
  
Magnet ссылка

Пиджак / The Jacket (Джон Мэйбери / John Maybury) [2004, США, Германия, фантастика, триллер, драма, HDRip-AVC, Дубляж] piratbit.org

Пиджак через торрент piratbit.org

Размер: 2.55 GB | Добавлен: 6 лет 10 мес. назад | Торрент скачан:426 раз
Скачать  

26-09-2014 10:22 Пиджак Скачать торрент  

Пиджак / The Jacket«I was 27 years old the first time I died»
Год выпуска: 2004
Страна: США, Германия
Жанр: фантастика, триллер, драма, детектив
Продолжительность: 01:42:55
Перевод: Дубляж + профессиональный двухголосый
Субтитры: Русские, английские
Режиссер: Джон Мэйбери / John Maybury
В ролях:


Эдриан Броуди (Jack Starks), Кира Найтли (Jackie Price), Крис Кристофферсон (Dr. Thomas Becker), Дженнифер Джейсон Ли (Dr. Beth Lorenson), Келли Линч (Jean Price), Брэд Ренфро (The Stranger), Дэниэл Крэйг (Rudy Mackenzie), Стивен Макинтош (Dr. Hopkins), Брендан Койл (Damon), МакКензи Филлипс (Nurse Harding), Лора Марано (Young Jackie), Джейсон Льюис (Officer Harrison)

Описание:
Ветеран войны в Персидском заливе Джек Старкс поправляется после ранения в голову. Он возвращается в родной штат Вермонт, но ранение дает о себе знать приступами амнезии. Когда Старкса обвиняют в убийстве полицейского, его направляют на психиатрическую экспертизу.
Доктор Беккер использует экспериментальные методы лечения, вводя Старксу новейшие препараты. После инъекций Старксу надевают смирительную рубашку и помещают в подвал. В наркотическом опьянении мысли Старкса устремляются в будущее, где он встречает Джеки и узнает, что ему осталось жить 4 дня. Вместе с Джеки он ищет возможность убежать от судьбы.

Рейтинг:
Бюджет:$29 000 000
MPAA: R - Лицам до 17 лет обязательно присутствие взрослого
Качество: HDRip-AVC
Формат: MKV
Видео кодек:AVC
Аудио кодек:AC3
Видео: AVC, 1024x424 (2.40:1), 2391 kbps, 23,976 fps, 0,230 bpp
Аудио №1: русский / AC3 / 5.1 / 48 kHz / 384 kbps / 16 bit |Дублированный|
Аудио №2: русский / AC3 / 5.1 / 48 kHz / 384 kbps / 16 bit |Профессиональный двухголосый|
Аудио №3: английский / AC3 / 5.1 / 48 kHz / 384 kbps / 16 bit


General
Unique ID : 177109851737263909876963249477808303891 (0x853E1DDF70B5DFA98872B32142282F13)
Complete name : D:\Users\_KaisiK_\uTorrent\КИНО\Pidzhak.2005.x264.HDRip(AVC).svasva.mkv
Format : Matroska
Format version : Version 2
File size : 2.55 GiB
Duration : 1h 42mn
Overall bit rate : 3 541 Kbps
Encoded date : UTC 2011-09-19 01:49:17
Writing application : mkvmerge v3.4.0 ('Rapunzel') сборка от Jun 2 2010 23:27:56
Writing library : libebml v0.8.1 + libmatroska v0.9.0

Video
ID : 1
Format : AVC
Format/Info : Advanced Video Codec
Format profile : High@L4.1
Format settings, CABAC : Yes
Format settings, ReFrames : 10 frames
Codec ID : V_MPEG4/ISO/AVC
Duration : 1h 42mn
Bit rate : 2 391 Kbps
Width : 1 024 pixels
Height : 424 pixels
Display aspect ratio : 2.40:1
Frame rate : 23.976 fps
Color space : YUV
Chroma subsampling : 4:2:0
Bit depth : 8 bits
Scan type : Progressive
Bits/(Pixel*Frame) : 0.230
Stream size : 1.67 GiB (65%)
Writing library : x264 core 116 r2074 2641b9e
Encoding settings : cabac=1 / ref=10 / deblock=1:-3:-2 / analyse=0x3:0x133 / me=hex / subme=10 / psy=1 / psy_rd=1.00:0.15 / mixed_ref=1 / me_range=16 / chroma_me=1 / trellis=2 / 8x8dct=1 / cqm=0 / deadzone=21,11 / fast_pskip=1 / chroma_qp_offset=-3 / threads=6 / sliced_threads=0 / nr=0 / decimate=1 / interlaced=0 / bluray_compat=0 / constrained_intra=0 / bframes=8 / b_pyramid=2 / b_adapt=2 / b_bias=0 / direct=3 / weightb=1 / open_gop=0 / weightp=2 / keyint=250 / keyint_min=23 / scenecut=40 / intra_refresh=0 / rc=2pass / mbtree=0 / bitrate=2391 / ratetol=1.0 / qcomp=0.60 / qpmin=10 / qpmax=51 / qpstep=4 / cplxblur=20.0 / qblur=0.5 / ip_ratio=1.40 / pb_ratio=1.30 / aq=1:1.00
Language : English
Default : No
Forced : No

Audio #1
ID : 2
Format : AC-3
Format/Info : Audio Coding 3
Mode extension : CM (complete main)
Codec ID : A_AC3
Duration : 1h 42mn
Bit rate mode : Constant
Bit rate : 384 Kbps
Channel(s) : 6 channels
Channel positions : Front: L C R, Side: L R, LFE
Sampling rate : 48.0 KHz
Bit depth : 16 bits
Compression mode : Lossy
Stream size : 283 MiB (11%)
Title : DUB
Language : Russian
Default : Yes
Forced : No

Audio #2
ID : 3
Format : AC-3
Format/Info : Audio Coding 3
Mode extension : CM (complete main)
Codec ID : A_AC3
Duration : 1h 42mn
Bit rate mode : Constant
Bit rate : 384 Kbps
Channel(s) : 6 channels
Channel positions : Front: L C R, Side: L R, LFE
Sampling rate : 48.0 KHz
Bit depth : 16 bits
Compression mode : Lossy
Stream size : 283 MiB (11%)
Title : DVO-Tycoon
Language : Russian
Default : No
Forced : No

Audio #3
ID : 4
Format : AC-3
Format/Info : Audio Coding 3
Mode extension : CM (complete main)
Codec ID : A_AC3
Duration : 1h 42mn
Bit rate mode : Constant
Bit rate : 384 Kbps
Channel(s) : 6 channels
Channel positions : Front: L C R, Side: L R, LFE
Sampling rate : 48.0 KHz
Bit depth : 16 bits
Compression mode : Lossy
Stream size : 283 MiB (11%)
Title : ENG
Language : English
Default : No
Forced : No

Text #1
ID : 5
Format : UTF-8
Codec ID : S_TEXT/UTF8
Codec ID/Info : UTF-8 Plain Text
Title : Russkie-1
Language : Russian
Default : Yes
Forced : No

Text #2
ID : 6
Format : UTF-8
Codec ID : S_TEXT/UTF8
Codec ID/Info : UTF-8 Plain Text
Title : Russkie-2
Language : Russian
Default : No
Forced : No

Text #3
ID : 7
Format : UTF-8
Codec ID : S_TEXT/UTF8
Codec ID/Info : UTF-8 Plain Text
Title : English
Language : English
Default : No
Forced : No

[/code]
piratbit.org



Скачать Пиджак через торрент http://i5.imageban.ru/out/2014/09/26/a51551f2f6f3077b91f94e4e7139ec0b.jpg Скачать фильм Пиджак через торрент бесплантно в хорошем качестве Описание: Ветеран войны в Персидском заливе Джек Старкс поправляется после ранения в голову. Он возвращается в родной штат Вермонт, но ... 10 10 16
Info! Золотая раздача, скачанное не засчитывается.
Торрент: Зарегистрирован [2014-09-26 10:22] · скачан: 426 раз
Статус: √ проверено
Размер: 2.55 GB
Как cкачать? Как скачать Пиджак через торрент | UTorrent

% Раздел Тема Автор DL S | L
Фильмы 2001-2005 [ 1.47 GB ] Пиджак / Jacket The [2004 HDRip] Sудья Скачать
1 | 0
Фильмы 2001-2005 [ 2.19 GB ] Пиджак / The Jacket [2005 BDRip лицензия] Яйцеслав Скачать
1 | 0
Фильмы 2001-2005 [ 1.33 GB ] Пиджак / Jacket The [2004 ... DVDRip лицензия] kuvagen Скачать
1 | 0
Фильмы 2001-2005 [ 700 MB ] Пиджак / The jacket [2005 HDRip] nitles666 Скачать
1 | 0


Последний раз редактировалось: _KaisiK_ (2014-12-11 13:52), всего редактировалось 1 раз

28-11-2019 20:33  

Отключить всю рекламу на сайте

26-09-2014 10:41 Пиджак Скачать торрент  

Кто каким-то чудом еще не смотрел этот фильм - обязательно посмотрите)piratbit.org



26-09-2014 15:38 Пиджак Скачать торрент  

LsD_eshnic писал(а):

Кто каким-то чудом еще не смотрел этот фильм - обязательно посмотрите)

полностью согласен и рекомендуюpiratbit.org



27-09-2014 10:37 Пиджак Скачать торрент  

а ведь я не смотрел)) качаю))piratbit.org



17-04-2015 21:08 Пиджак Скачать торрент  

Фильм просто шедевр!piratbit.org



23-05-2017 21:11 Пиджак Скачать торрент  

Лет 5 назад смотрел, посмотрю ещё раз.piratbit.org



    Дорогой пользователь! Огромная просьба, поблагодарите релизера, оцените раздачу и оставьте свои комментарий, если Вы скачали Пиджак через торрент бесплатно! Внесите свою лепту в развитие PiratBit!
    Комментировать посты могут только пользователи прошедшие не сложную регистрацию
    Показать сообщения:    

    Пиджак через торрент
    Скачать бесплатно Пиджак
    Пиджак скачать торрент
    Пиджак смотреть онлайн
    Cкачать фильм Пиджак бесплатно
    Пиджак скачать торрент в хорошем качестве
    Пиджак смотреть онлайн бесплатно в хорошем качестве


    Вы не можете начинать темы
    Вы не можете отвечать на сообщения
    Вы не можете редактировать свои сообщения
    Вы не можете удалять свои сообщения
    Вы не можете голосовать в опросах
    Вы не можете прикреплять файлы к сообщениям
    Вы можете скачивать файлы