Ссылка на приватное зеркало нашего сайта всего за 1$. Внимание количество ограничено!!!

2 сезон

iTunes

iTunes

1

iTunes

iTunes

iTunes

WEBRip

iTunes

30
pack

Вам бонус

ВАЖНО

!!Акция!!

Alien_RageХит недели

RePack

Horizon Zero Dawn

ИГРА 18+

pack

RePack

jed

!!Акция!!

Alien_Rage

RePack

fifa19

RePack

Assassins Creed: Odyssey

RePack

NEED FOR SPEED™ PAYBACK

4 сезон

9 сезон

Бесстыжие 9 сезон

Все сериалы

все сериалы на PB.wtf

RePack

FAR CRY 5
  

Сайлент Хилл / Silent Hill (Кристоф Ганс /Christophe Gans) [2006, Ужасы, детектив, BDRip-AVC] DUB Лицензия piratbit.org

Сайлент Хилл через торрент piratbit.org

Раздают: 1 [ 0 KB/s ]
Размер: 2.91 GB | Добавлен: 6 лет назад | Торрент скачан:260 раз
Скачать  

28-09-2014 10:25 Сайлент Хилл Скачать торрент  

Сайлент Хилл / Silent Hill
Год выпуска: 2006
Страна: Канада, Франция / Davis-Films
Жанр: Ужасы, детектив
Продолжительность: 02:05:19
Перевод: Дубляж [R5]
Субтитры: Русские (полные + форс.), английские

Режиссер: Кристоф Ганс /Christophe Gans

В ролях: Рада Митчелл, Джоделль Ферланд, Лори Холден, Шон Бин, Дебора Кара Ангер, Ким Коутс, Таня Аллен, Элис Крайдж, Коллин Уильямс, Рон Гэбриел

Описание: Молодая мать, отчаявшись найти лекарство от таинственного заболевания своей дочери Шэрон, отказывается отдать ее в психиатрическую лечебницу. Вместе с Шэрон она отправляется в Сайлент Хилл, город, название которого ее дочь постоянно твердит во сне.
Несмотря на сопротивление мужа, Роуз убеждена, что найдет там ответы, в которых так нуждается. Но когда они подъезжают к заброшенному городу, на дороге появляется таинственная фигура, Роуз резко тормозит, и машина попадает в аварию… Придя в себя, она обнаруживает, что Шэрон исчезла…
В компании упрямой женщины-полицейской из городка неподалеку Роуз отправляется на поиски своего ребенка в Сайлент Хилл, место, непохожее ни на одно другое: город покрыт туманом, его населяют странные, проклятые создания, и время от времени он погружается во Мрак, который буквально меняет все, к чему прикасается…



Качество: BDRip-AVC
Формат: MKV
Видео кодек: H.264
Аудио кодек: AC3
Видео: 1040x444 (2,35:1), 23,976 fps, 2428 kbps, 0.219 bit/pixel
Аудио#1: 48 kHz, AC3 Dolby Digital, 3/2 (L,C,R,l,r) + LFE ch, 448.00 kbps | RUS
Аудио#2: 48 kHz, AC3 Dolby Digital, 3/2 (L,C,R,l,r) + LFE ch, 448.00 kbps | ENG

Релиз группы:
Автор рипа: potroks

Общее
Уникальный идентификатор : 210649739539167673758834818004767984823 (0x9E79AA037AA0733483CD6D9E8603CCB7)
Полное имя : Saylent.Hill.Dilogy.[2006-2012].-HELLYWOOD\Saylent.Hill.2006.DUAL.BDRip.x264.-HELLYWOOD.mkv
Формат : Matroska
Версия формата : Version 4 / Version 2
Размер файла : 2,91 Гбайт
Продолжительность : 2 ч. 5 м.
Общий поток : 3326 Кбит/сек
Название фильма : Silent Hill (2006) - HELLYWOOD
Дата кодирования : UTC 2014-09-27 11:37:35
Программа кодирования : mkvmerge v5.9.0 ('On The Loose') built on Dec 15 2012 16:39:58
Библиотека кодирования : libebml v1.3.0 + libmatroska v1.4.0

Видео
Идентификатор : 1
Формат : AVC
Формат/Информация : Advanced Video Codec
Профиль формата : High@L4.1
Параметр CABAC формата : Да
Параметр ReFrames формата : 10 кадров
Идентификатор кодека : V_MPEG4/ISO/AVC
Продолжительность : 2 ч. 5 м.
Битрейт : 2428 Кбит/сек
Ширина : 1040 пикселей
Высота : 444 пикселя
Соотношение сторон : 2,35:1
Режим частоты кадров : Постоянный
Частота кадров : 23,976 кадра/сек
Цветовое пространство : YUV
Субдискретизация насыщенности : 4:2:0
Битовая глубина : 8 бит
Тип развёртки : Прогрессивная
Бит/(Пиксели*Кадры) : 0.219
Размер потока : 2,07 Гбайт (71%)
Заголовок : potroks
Библиотека кодирования : x264 core 130 r2273 b3065e6
Настройки программы : cabac=1 / ref=10 / deblock=1:-3:-3 / analyse=0x3:0x133 / me=umh / subme=11 / psy=1 / psy_rd=0.98:0.00 / mixed_ref=1 / me_range=48 / chroma_me=1 / trellis=2 / 8x8dct=1 / cqm=0 / deadzone=21,11 / fast_pskip=0 / chroma_qp_offset=-2 / threads=9 / lookahead_threads=2 / sliced_threads=0 / nr=0 / decimate=0 / interlaced=0 / bluray_compat=0 / constrained_intra=0 / bframes=11 / b_pyramid=2 / b_adapt=2 / b_bias=0 / direct=3 / weightb=1 / open_gop=0 / weightp=2 / keyint=250 / keyint_min=22 / scenecut=40 / intra_refresh=0 / rc_lookahead=60 / rc=2pass / mbtree=0 / bitrate=2428 / ratetol=1.0 / qcomp=0.70 / qpmin=0 / qpmax=69 / qpstep=4 / cplxblur=20.0 / qblur=0.5 / vbv_maxrate=50000 / vbv_bufsize=62500 / nal_hrd=none / ip_ratio=1.35 / pb_ratio=1.25 / aq=1:0.90
Язык : English
Default : Да
Forced : Нет

Аудио #1
Идентификатор : 2
Формат : AC-3
Формат/Информация : Audio Coding 3
Расширение режима : CM (complete main)
Параметр Endianness формата : Big
Идентификатор кодека : A_AC3
Продолжительность : 2 ч. 5 м.
Вид битрейта : Постоянный
Битрейт : 448 Кбит/сек
Каналы : 6 каналов
Расположение каналов : Front: L C R, Side: L R, LFE
Частота : 48,0 КГц
Битовая глубина : 16 бит
Метод сжатия : С потерями
Размер потока : 402 Мбайт (13%)
Заголовок : Dub | DD 5.1 @ 448 kbps - R5
Язык : Russian
Default : Да
Forced : Да

Аудио #2
Идентификатор : 3
Формат : AC-3
Формат/Информация : Audio Coding 3
Расширение режима : CM (complete main)
Параметр Endianness формата : Big
Идентификатор кодека : A_AC3
Продолжительность : 2 ч. 5 м.
Вид битрейта : Постоянный
Битрейт : 448 Кбит/сек
Каналы : 6 каналов
Расположение каналов : Front: L C R, Side: L R, LFE
Частота : 48,0 КГц
Битовая глубина : 16 бит
Метод сжатия : С потерями
Размер потока : 402 Мбайт (13%)
Заголовок : Original | DD 5.1 @ 448 kbps
Язык : English
Default : Нет
Forced : Нет

Текст #1
Идентификатор : 4
Формат : UTF-8
Идентификатор кодека : S_TEXT/UTF8
Идентификатор кодека/Информация : UTF-8 Plain Text
Заголовок : форс.
Язык : Russian
Default : Да
Forced : Да

Текст #2
Идентификатор : 5
Формат : UTF-8
Идентификатор кодека : S_TEXT/UTF8
Идентификатор кодека/Информация : UTF-8 Plain Text
Заголовок : полные
Язык : Russian
Default : Нет
Forced : Нет

Текст #3
Идентификатор : 6
Формат : UTF-8
Идентификатор кодека : S_TEXT/UTF8
Идентификатор кодека/Информация : UTF-8 Plain Text
Заголовок : Full
Язык : English
Default : Нет
Forced : Нет

Меню
00:00:00.000 : en:Ночные страхи
00:03:24.871 : en:Необычная поездка
00:08:38.210 : en:Нет на карте
00:13:08.522 : en:Закрытая дорога
00:17:20.791 : en:Страшные находки
00:23:02.123 : en:"Моё!"
00:25:42.102 : en:Вмешательство полиции
00:33:42.059 : en:Безмолвный город
00:34:36.797 : en:Поиски
00:37:50.699 : en:Не одна
00:43:50.665 : en:Ночные существа
00:47:15.531 : en:"Она здесь"
00:53:45.004 : en:"Все будет в порядке"
00:56:02.513 : en:Сберечь веру
01:01:16.085 : en:Первое сожжение
01:04:20.695 : en:Призраки
01:08:18.139 : en:Тревога
01:11:20.488 : en:Прибежище грешников
01:13:45.839 : en:"Я не могу вам помочь"
01:16:50.139 : en:Откуда нет возврата
01:27:24.031 : en:История Алессы
01:33:52.510 : en:Смерть
01:39:55.725 : en:Вновь обретенная невинность
01:43:02.070 : en:Ужасная судьба
01:47:57.070 : en:Кульминация
01:52:06.070 : en:Материнский инстинкт
01:54:02.570 : en:Возвращение домой
01:57:55.270 : en:Финальные титры

piratbit.org



Скачать Сайлент Хилл через торрент http://pic.kartinco.top/images/7/jx2br.jpg Скачать фильм Сайлент Хилл через торрент бесплантно в хорошем качестве Описание: Молодая мать, отчаявшись найти лекарство от таинственного заболевания своей дочери Шэрон, отказывается отдать ее в ... 10 10 8
Info! Золотая раздача, скачанное не засчитывается.
Торрент: Зарегистрирован [2014-09-28 10:25] · скачан: 260 раз
Статус: √ проверено
Размер: 2.91 GB
Как cкачать? Как скачать Сайлент Хилл через торрент | qTorrent

% Раздел Тема Автор DL S | L
Фильмы 2012 [ 1.45 GB ] Сайлент Хилл 2 / Silent Hill: Revelation [2012 HDRip] DUB |лицензия| NarutoSasuke Скачать
1 | 0

28-11-2019 20:33  

Отключить всю рекламу на сайте

28-09-2014 10:33 Сайлент Хилл Скачать торрент  

Эта часть отличная, чего не скажешь о второй!piratbit.org



28-09-2014 10:36 Сайлент Хилл Скачать торрент  

Raven, а как вторая называется, ссылку не скинешь ? не смотрел, хочу заполнить пробел =)piratbit.org



28-09-2014 10:55 Сайлент Хилл Скачать торрент  

БАНДИТ, поиск рулит
http://pb.wtf/tracker/?ss=%D0%A1%D0%B0%D0%B9%D0%BB%...+2012%20#resultspiratbit.org



07-12-2015 11:02 Сайлент Хилл Скачать торрент  

Норм.piratbit.org



    Дорогой пользователь! Огромная просьба, поблагодарите релизера, оцените раздачу и оставьте свои комментарий, если Вы скачали Сайлент Хилл через торрент бесплатно! Внесите свою лепту в развитие PiratBit!
    Комментировать посты могут только пользователи прошедшие не сложную регистрацию
    Показать сообщения:    

    Сайлент Хилл через торрент
    Скачать бесплатно Сайлент Хилл
    Сайлент Хилл скачать торрент
    Сайлент Хилл смотреть онлайн
    Cкачать фильм Сайлент Хилл бесплатно
    Сайлент Хилл скачать торрент в хорошем качестве
    Сайлент Хилл смотреть онлайн бесплатно в хорошем качестве


    Вы не можете начинать темы
    Вы не можете отвечать на сообщения
    Вы не можете редактировать свои сообщения
    Вы не можете удалять свои сообщения
    Вы не можете голосовать в опросах
    Вы не можете прикреплять файлы к сообщениям
    Вы можете скачивать файлы