Ссылка на приватное зеркало нашего сайта всего за 1$. Внимание количество ограничено!!!

2 сезон

iTunes

iTunes

1

iTunes

iTunes

iTunes

WEBRip

iTunes

30
pack

Вам бонус

ВАЖНО

!!Акция!!

Alien_RageХит недели

RePack

Horizon Zero Dawn

ИГРА 18+

pack

RePack

jed

!!Акция!!

Alien_Rage

RePack

fifa19

RePack

Assassins Creed: Odyssey

RePack

NEED FOR SPEED™ PAYBACK

4 сезон

9 сезон

Бесстыжие 9 сезон

Все сериалы

все сериалы на PB.wtf

RePack

FAR CRY 5
  

Класс / Klass (Ильмар Рааг / Ilmar Raag) [2007, Эстония, драма, BDRip] MVO (Кармен-Видео) piratbit.org

Класс через торрент piratbit.org

Размер: 1.45 GB | Добавлен: 5 лет 11 мес. назад | Торрент скачан:190 раз
Скачать  

02-10-2014 20:40 Класс Скачать торрент  

Класс / Klass
«Я не умру вам назло…»

Год выпуска: 2007
Страна: Эстония
Жанр:драма
Продолжительность:01:37:34
Перевод:Профессиональный многоголосый-Кармен Видео
Режиссер:Ильмар Рааг

  • В ролях:

    Валло Кирс (Kaspar), Пярт Уусберг (Joosep), Лаури Педайя (Anders), Паула Солвак (Thea), Микк Мяги (Paul), Риина Риес (Riina), Йонас Паас (Toomas), Кади Метсла (Kati), Трийн Тенсо (Kerli), Вирго Эрнитс (Tiit), Карл Сакритс (Olav), Лиина Йонас (Kersti)

  • Описание:
    Обычная эстонская школа, выпускной класс. Парень по имени Йозеп постоянно терпит насмешки и издевательства со стороны одноклассников. Никогда не отвечая на выпады, он провоцирует их заходить в глупых «шутках» все дальше и дальше, до тех пор, пока за него не заступился один из бывших насмешников - Каспар. В классе начинается противостояние, которое постепенно накаляется, приближая неминуемую развязку...

  • Мировая премьера:16 марта 2007


    Автор рипа: sociolog_melvas
    Качество: BDRip
    Формат:AVI
    Видео кодек: XviD
    Аудио кодек:AC3
    Видео: XviD, 704x400 (16:9), 1927 kbps, 25 fps, 0,274 bpp
    Аудио: AC3 / 2.0 / 48 kHz / 192 kbps / 16 bit


    Код:

    General
    Complete name                            : D:\Торенты\Klass.2007.RUS.BDRip.XviD.AC3.-HQCLUB.avi
    Format                                   : AVI
    Format/Info                              : Audio Video Interleave
    File size                                : 1.45 GiB
    Duration                                 : 1h 37mn
    Overall bit rate                         : 2 129 Kbps
    Movie name                               : Класс / Klass (2007) BDRip
    Director                                 : sociolog_melvas
    Genre                                    : драма
    Writing application                      : VirtualDubMod 1.5.10.2 (build 2540/release)

    Comment                                  : 01.11.2012

    Video
    ID                                       : 0
    Format                                   : MPEG-4 Visual
    Format profile                           : Advanced Simple@L5
    Format settings, BVOP                    : 1
    Format settings, QPel                    : No
    Format settings, GMC                     : No warppoints
    Format settings, Matrix                  : Custom
    Codec ID                                 : XVID
    Codec ID/Hint                            : XviD
    Duration                                 : 1h 37mn
    Bit rate                                 : 1 927 Kbps
    Width                                    : 704 pixels
    Height                                   : 400 pixels
    Display aspect ratio                     : 16:9
    Frame rate                               : 25.000 fps
    Color space                              : YUV
    Chroma subsampling                       : 4:2:0
    Bit depth                                : 8 bits
    Scan type                                : Progressive
    Compression mode                         : Lossy
    Bits/(Pixel*Frame)                       : 0.274
    Stream size                              : 1.31 GiB (91%)
    Writing library                          : XviD 65

    Audio
    ID                                       : 1
    Format                                   : AC-3
    Format/Info                              : Audio Coding 3
    Mode extension                           : CM (complete main)
    Codec ID                                 : 2000
    Duration                                 : 1h 37mn
    Bit rate mode                            : Constant
    Bit rate                                 : 192 Kbps
    Channel(s)                               : 2 channels
    Channel positions                        : Front: L R
    Sampling rate                            : 48.0 KHz
    Bit depth                                : 16 bits
    Compression mode                         : Lossy
    Stream size                              : 134 MiB (9%)
    Alignment                                : Split accross interleaves
    Interleave, duration                     : 40 ms (1.00 video frame)
    Interleave, preload duration             : 500 ms

    Скриншоты:



    © Оформление by Ravenpiratbit.org



  • Скачать Класс через торрент http://pic.kartinco.top/images/6/stazu.jpg Скачать фильм Класс через торрент бесплантно в хорошем качестве Описание:Обычная эстонская школа, выпускной класс. Парень по имени Йозеп постоянно терпит насмешки и издевательства со стороны ... 8.7 10 9
    Торрент: Зарегистрирован [2014-10-02 20:40] · скачан: 190 раз
    Статус: √ проверено
    Размер: 1.45 GB
    Как cкачать? Как скачать Класс через торрент | qTorrent

    % Раздел Тема Автор DL S | L
    Фильмы (WEB-DL 720p, 1080p) [ 10.86 GB ] Летающий класс / Das fliegende Klassenzimmer [2003 WEB-DL 1080p] MVO bober100 Скачать
    1 | 0
    T Фильмы (мультфильмы) cо спонсором показа (Новинки AVI/MKV) [ 2.05 GB ] Встреча одноклассников / Klassentreffen 1.0 [2018 HDRip] DUB [Line] bober100 Скачать
    1 | 0
    T Фильмы (мультфильмы) cо спонсором показа (Новинки AVI/MKV) [ 1.37 GB ] Встреча одноклассников / Klassentreffen 1.0 [2018 HDRip] DUB [Line] bober100 Скачать
    1 | 0
    Фильмы 2006-2008 [ 746 MB ] Класс / Klass [2007 BDRip-AVC] MVO [] sokol_ok Скачать
    2 | 0
    Фильмы 2006-2008 [ 2.16 GB ] Класс / Klass [2007 BDRip-AVC] MVO [] sokol_ok Скачать
    2 | 0
    Фильмы 2006-2008 [ 1.49 GB ] Класс / Klass [2007 BDRip-AVC] MVO [] sokol_ok Скачать
    2 | 0
    Фильмы (Blu-ray, BD-Remux, HDDVD) [ 14.59 GB ] Класс / Klass [2007 BD-Remux MVO ] VintMosina Скачать
    1 | 0

    28-11-2019 20:33  

    Отключить всю рекламу на сайте

    02-10-2014 21:02 Класс Скачать торрент  

    Cпасибо, большоеpiratbit.org



    03-10-2014 08:05 Класс Скачать торрент  

    хороший фильмpiratbit.org



      Дорогой пользователь! Огромная просьба, поблагодарите релизера, оцените раздачу и оставьте свои комментарий, если Вы скачали Класс через торрент бесплатно! Внесите свою лепту в развитие PiratBit!
      Комментировать посты могут только пользователи прошедшие не сложную регистрацию
      Показать сообщения:    

      Класс через торрент
      Скачать бесплатно Класс
      Класс скачать торрент
      Класс смотреть онлайн
      Cкачать фильм Класс бесплатно
      Класс скачать торрент в хорошем качестве
      Класс смотреть онлайн бесплатно в хорошем качестве


      Вы не можете начинать темы
      Вы не можете отвечать на сообщения
      Вы не можете редактировать свои сообщения
      Вы не можете удалять свои сообщения
      Вы не можете голосовать в опросах
      Вы не можете прикреплять файлы к сообщениям
      Вы можете скачивать файлы