Доктор Стрэндж

Лицензия

Добыча

Дубляж

Дом дракона

1 сезон

Тор

Дубляж

В эфире

Дубляж

Там, где раки поют

MVO

Властелин колец

1 сезон

Ultimate

pack

Рекомендуем

30

Пиратка

ВАЖНО

ВАЖНО

Ghostwire

Пиратка

jed

RePack

nioh2

RePack

RDR2

RePack

NEED FOR SPEED™ PAYBACK

RePack

скачать торрент

Кинопоиск HD

Острые козырьки 6 сезон

6 сезон

FAR CRY 6

RePack

скачать торрент

Лицензия

скачать торрент

MVO

1

1 сезон

скачать торрент

1 сезон

скачать торрент

Лицензия

  

Местный / The Homesman (Томми Ли Джонс) [2014, драма, вестерн, BDRip 720p, Любительский (двухголосый)[Сладкая парочка]

Местный через торрент piratbit.org

Размер: 5.3 GB | Добавлен: 8 лет 1 мес. назад | Торрент скачан:94 раза
Смотреть онлайн | Скачать   

05-10-2014 15:01 Местный Скачать торрент  

Местный / The Homesman


Год выпуска: 2014
Страна: Франция, США
Жанр:драма, вестерн
Продолжительность:02:02:32
Перевод:Любительский (двухголосый)[Сладкая парочка]
Субтитры: английские,
Режиссер:Томми Ли Джонс

  • В ролях:

    Томми Ли Джонс (George Briggs), Хилари Суэнк (Mary Bee Cuddy), Грэйс Гаммер (Arabella Sours), Миранда Отто (Theoline Belknapp), Соня Рихтер (Gro Svendsen), Давид Денсик (Thor Svendsen), Джон Литгоу (Reverend Dowd), Тим Блейк Нельсон (The Freighter), Джеймс Спэйдер (Aloysius Duffy), Уильям Фихтнер (Vester Belknap), Джесси Племонс (Garn Sours), Ивэн Джонс (Bob Giffin)

  • Описание:
    События фильма разворачиваются во времена освоения американского Запада. Главной героине надо перевезти трех умственно неполноценных женщин из Небраски в Айову. Сопроводить опасную, требующую от всех большого мужества экспедицию нанят человек вне закона...

  • Мировая премьера:18 мая 2014

    Качество: BDRip 720p
    Формат:MKV
    Видео кодек: AVC
    Аудио кодек:AC3
    Видео: AVC, 1280x546 (2.35:1), 4986 kbps, 24 fps, 0,297 bpp
    Аудио №1: русский / AC3 / 5.1 / 48 kHz / 448 kbps / 16 bit ||
    Аудио №2: английский / AC3 / 5.1 / 48 kHz / 640 kbps / 16 bit
    Навигация по главам: есть

    Код:

    General
    Unique ID                                : 206646805681613396066162090746178318106 (0x9B76BA230E7372D58E7377D1379E2F1A)
    Complete name                            : D:\Торенты\The.Homesman.2014.720p.BluRay.DVO.Rus.Eng.Neoclub.mkv
    Format                                   : Matroska
    Format version                           : Version 2
    File size                                : 5.30 GiB
    Duration                                 : 2h 2mn
    Overall bit rate                         : 6 198 Kbps
    Movie name                               : Местный / The Homesman (2014)-BDRip 720p от Neofilm
    Encoded date                             : UTC 2014-10-05 05:58:52
    Writing application                      : mkvmerge v5.8.0 ('No Sleep / Pillow') built on Sep  2 2012 15:37:04
    Writing library                          : libebml v1.2.3 + libmatroska v1.3.0

    Video
    ID                                       : 1
    Format                                   : AVC
    Format/Info                              : Advanced Video Codec
    Format profile                           : High@L4.1
    Format settings, CABAC                   : Yes
    Format settings, ReFrames                : 11 frames
    Codec ID                                 : V_MPEG4/ISO/AVC
    Duration                                 : 2h 2mn
    Bit rate                                 : 4 986 Kbps
    Width                                    : 1 280 pixels
    Height                                   : 546 pixels
    Display aspect ratio                     : 2.35:1
    Frame rate                               : 24.000 fps
    Color space                              : YUV
    Chroma subsampling                       : 4:2:0
    Bit depth                                : 8 bits
    Scan type                                : Progressive
    Bits/(Pixel*Frame)                       : 0.297
    Stream size                              : 4.27 GiB (80%)
    Title                                    : Местный / The Homesman (2014)-VietHD
    Writing library                          : x264 core 142 r2431+42 c69a006 tMod [8-bit@all X86_64]
    Encoding settings                        : cabac=1 / ref=11 / deblock=1:-3:-3 / analyse=0x3:0x133 / me=umh / subme=10 / psy=1 / fade_compensate=0.00 / psy_rd=0.95:0.00 / mixed_ref=1 / me_range=24 / chroma_me=1 / trellis=2 / 8x8dct=1 / cqm=0 / deadzone=21,11 / fast_pskip=1 / chroma_qp_offset=-2 / threads=12 / lookahead_threads=2 / sliced_threads=0 / nr=0 / decimate=1 / interlaced=0 / bluray_compat=0 / constrained_intra=0 / fgo=0 / bframes=7 / b_pyramid=2 / b_adapt=2 / b_bias=0 / direct=3 / weightb=1 / open_gop=0 / weightp=2 / keyint=250 / keyint_min=24 / scenecut=40 / intra_refresh=0 / rc=crf / mbtree=0 / crf=16.3000 / qcomp=0.65 / qpmin=0:0:0 / qpmax=69:69:69 / qpstep=4 / ip_ratio=1.30 / pb_ratio=1.20 / aq=4:0.80 / aq-sensitivity=10.00 / aq-factor=1.00:1.00:1.00 / aq2=0 / aq3=0 / zones=7584,13667,crf=14.3/83110,83456,crf=14.3/103703,104330,crf=14.3/106533,106924,crf=14.3/111296,111334,crf=14.3/111643,115489,crf=14.3/116148,116209,crf=14.3
    Language                                 : English
    Default                                  : No
    Forced                                   : No
    Matrix coefficients                      : BT.709-5, BT.1361, IEC 61966-2-4 709, SMPTE RP177

    Audio #1
    ID                                       : 2
    Format                                   : AC-3
    Format/Info                              : Audio Coding 3
    Mode extension                           : CM (complete main)
    Codec ID                                 : A_AC3
    Duration                                 : 2h 2mn
    Bit rate mode                            : Constant
    Bit rate                                 : 448 Kbps
    Channel(s)                               : 6 channels
    Channel positions                        : Front: L C R, Side: L R, LFE
    Sampling rate                            : 48.0 KHz
    Bit depth                                : 16 bits
    Compression mode                         : Lossy
    Stream size                              : 393 MiB (7%)
    Title                                    : DVO
    Language                                 : Russian
    Default                                  : No
    Forced                                   : Yes

    Audio #2
    ID                                       : 3
    Format                                   : AC-3
    Format/Info                              : Audio Coding 3
    Mode extension                           : CM (complete main)
    Codec ID                                 : A_AC3
    Duration                                 : 2h 2mn
    Bit rate mode                            : Constant
    Bit rate                                 : 640 Kbps
    Channel(s)                               : 6 channels
    Channel positions                        : Front: L C R, Side: L R, LFE
    Sampling rate                            : 48.0 KHz
    Bit depth                                : 16 bits
    Compression mode                         : Lossy
    Stream size                              : 561 MiB (10%)
    Language                                 : English
    Default                                  : No
    Forced                                   : No

    Text
    ID                                       : 4
    Format                                   : UTF-8
    Codec ID                                 : S_TEXT/UTF8
    Codec ID/Info                            : UTF-8 Plain Text
    Language                                 : English
    Default                                  : Yes
    Forced                                   : No

    Menu
    00:00:00.000                             : en:00:00:00.000
    00:09:29.500                             : en:00:09:29.500
    00:21:25.417                             : en:00:21:25.417
    00:31:59.917                             : en:00:31:59.917
    00:39:52.125                             : en:00:39:52.125
    00:48:20.458                             : en:00:48:20.458
    01:00:31.750                             : en:01:00:31.750
    01:08:45.458                             : en:01:08:45.458
    01:15:46.000                             : en:01:15:46.000
    01:27:10.792                             : en:01:27:10.792
    01:35:24.167                             : en:01:35:24.167
    01:49:10.833                             : en:01:49:10.833

    Скриншоты:

    Каталог Новинок (Фильмы-трейлеры, Игры, Сериалы, Мультфильмы)


    © Оформление by Raven



  • Скачать Местный через торрент https://pic1.kartinco.top/images/61/stazu.jpg Скачать, смотреть онлайн Местный бесплантно в хорошем качестве Описание:События фильма разворачиваются во времена освоения американского Запада. Главной героине надо перевезти трех умственно ... 8.9 10 8
    Info! Золотая раздача, скачанное не засчитывается.
    Торрент: Зарегистрирован [2014-10-05 15:01] · скачан: 94 раз
    Статус: T временная
    Размер: 5.3 GB
    Как cкачать? Как скачать Местный через торрент | UTorrent

    % Раздел Тема Автор DL S | L
    T Фильмы 2014 (Звук TS, Cam, VO, DVO) [ 1.46 GB ] Местный / The Homesman | | HDRip, Любительский (двухголосый Ворон Скачать
    1 | 0
    T Фильмы 2014 (Звук TS, Cam, VO, DVO) [ 2.05 GB ] Местный / The Homesman | | HDRip, Любительский (двухголосый Ворон Скачать
    1 | 0

    28-11-2019 20:33  


    Отключить вcю реклaмy на сайте, в т.ч. и в плеере онлайн просмотра!

      Дорогой пользователь! Огромная просьба, поблагодарите релизера, оцените раздачу и оставьте свои комментарий, если Вы скачали Местный через торрент бесплатно!!
      Комментировать посты могут только пользователи прошедшие не сложную регистрацию
      Показать сообщения:    


      Местный через торрент
      Скачать бесплатно Местный
      Местный скачать торрент
      Местный смотреть онлайн
      Cкачать фильм Местный бесплатно
      Местный скачать торрент в хорошем качестве
      Местный смотреть онлайн бесплатно в хорошем качестве
      Вы не можете начинать темы
      Вы не можете отвечать на сообщения
      Вы не можете редактировать свои сообщения
      Вы не можете удалять свои сообщения
      Вы не можете голосовать в опросах
      Вы не можете прикреплять файлы к сообщениям
      Вы можете скачивать файлы
      Местный / The Homesman [2014, драма, вестерн, BDRip 720p, Любительский [Сладкая парочка] смотреть онлайн, скачать торрент picoco.icu