2 сезон

iTunes

MVO

1

2 сезон

iTunes

iTunes

1 сезон

RePack

30

Ultimate

ВАЖНО

ИГРА 18+

pack

RePack

MK11
pack

Легкие деньги

RePack

jed

RePack

fifa19

RePack

RDR2

RePack

NEED FOR SPEED™ PAYBACK

4 сезон

9 сезон

Бесстыжие 9 сезон

Все сериалы

все сериалы на PB.wtf

RePack

FAR CRY 5

Anonymous, доброй ночи, мы не успеваем собрать деньги на оплату серверов за декабрь и январь, помогите нам пожалуйста в это трудное время. В качестве благодарности мы отключим Вам всю рекламу на сайте (укажите свой ник в строку Ваше имя)!

×
  
Magnet ссылка

Десятка (Владимир Козлов) [2012 г., драма, WEB-DLRip] piratbit.org

Десятка через торрент piratbit.org

Размер: 1.37 GB | Добавлен: 6 лет 3 мес. назад | Торрент скачан:172 раза
Скачать  

11-10-2014 21:12 Десятка Скачать торрент  

Десятка
Год выпуска: 2012
Страна: Россия
Жанр: драма
Продолжительность: 01:23
Субтитры: Отсутствуют

Режиссер: Владимир Козлов



В ролях: Тимофей Яковец, Екатерина Еникеева, Илья Черных, Степан Гаврилов, Елена Рудковская, Илья Федотов, Игорь Красных, Герман Акимов, Евгений Соболев, Владимир Пашнин

Описание: Драма по мотивам одноименной повести Владимира Козлова. Валера подавал большие надежды как футболист, но травма ставит крест на его спортивной карьере, и он, вернувшись в родной город, учится в ПТУ. Окружающие люди — мать, все вечера проводящая у телевизора, девушка Света, лишенная каких-либо амбиций, бывшие одноклассники, которых интересует только криминал, — вряд ли чем-то могут помочь. И, оказавшись чужим в окружающем мире, но не имея своего, Валера совершает иррациональные поступки.


Качество: WEB-DLRip
Формат: AVI
Видео кодек: XviD
Аудио кодек: AC3
Видео: 720x304, 25,000 кадров/сек, 1935 Кбит/сек, 0.354bpp
Аудио#1: AC-3, 448 Кбит/сек, 2 канала, 48,0 КГц


Общее
Полное имя : D:\Users\_KaisiK_\uTorrent\КИНО\Desiatka.2012.WEB-DLRip..avi
Формат : AVI
Формат/Информация : Audio Video Interleave
Размер файла : 1,37 Гбайт
Продолжительность : 1 ч. 21 м.
Общий поток : 2393 Кбит/сек
Программа кодирования : VirtualDubMod 1.5.10.3 | www.virtualdub-fr.org || (build 2550/release)
Библиотека кодирования : VirtualDubMod build 2550/release

Видео
Идентификатор : 0
Формат : MPEG-4 Visual
Профиль формата : Advanced Simple@L5
Параметр BVOP формата : 2
Параметр QPel формата : Нет
Параметр GMC формата : Без точки перехода
Параметр матрицы формата : Default (MPEG)
Идентификатор кодека : XVID
Идентификатор кодека/Подсказка : XviD
Продолжительность : 1 ч. 21 м.
Битрейт : 1935 Кбит/сек
Ширина : 720 пикселей
Высота : 304 пикселя
Соотношение сторон : 2,35:1
Частота кадров : 25,000 кадров/сек
Цветовое пространство : YUV
Субдискретизация насыщенности : 4:2:0
Битовая глубина : 8 бит
Тип развёртки : Прогрессивная
Метод сжатия : С потерями
Бит/(Пиксели*Кадры) : 0.354
Размер потока : 1,10 Гбайт (81%)
Библиотека кодирования : XviD 1.2.1 (UTC 2008-12-04)

Аудио
Идентификатор : 1
Формат : AC-3
Формат/Информация : Audio Coding 3
Расширение режима : CM (complete main)
Параметр Endianness формата : Big
Идентификатор кодека : 2000
Продолжительность : 1 ч. 21 м.
Вид битрейта : Постоянный
Битрейт : 448 Кбит/сек
Каналы : 2 канала
Расположение каналов : Front: L R
Частота : 48,0 КГц
Битовая глубина : 16 бит
Метод сжатия : С потерями
Размер потока : 262 Мбайт (19%)
Выравнивание : Разделение по промежуткам
Продолжительность промежутка : 40 мс. (1,00 видеокадр)
Время предзагрузки промежутка : 500 мс.

piratbit.org



Скачать Десятка через торрент http://pic.kartinco.top/images/7/7wkie.jpg Скачать фильм Десятка через торрент бесплантно в хорошем качестве Описание: Драма по мотивам одноименной повести Владимира Козлова. Валера подавал большие надежды как футболист, но травма ставит крест на ... 8.5 10 6
Торрент: Зарегистрирован [2014-10-11 21:12] · скачан: 172 раз
Статус: √ проверено
Размер: 1.37 GB
Как cкачать? Как скачать Десятка через торрент | UTorrent

% Раздел Тема Автор DL S | L
Порно фильмы без сюжета [ 1.89 GB ] Штучки на Десятку 4 / Dime Piece 4 [2019 All Sex Oral Gonzo Facial Couples WEB-DLRip] Split Scenes sheker187 Скачать
1 | 0
Гонзо [ 1.82 GB ] Штучки на Десятку 2 / Dime Piece 2 [2016 Gonzo All Sex WEB-DL Оригинальный] DJASFUL Скачать
1 | 0
Гонзо [ 1.57 GB ] Штучки на Десятку / Dime Piece [2016 GonzoAll Sex Threesomes DVDRip Оригинальный] DJASFUL Скачать
1 | 0
Фильмы 2006-2008 [ 1.37 GB ] Попасть в десятку / Starter for 10 [2006 HDRip] TekkenxD Скачать
1 | 0
Аниме [HD 720p, 1080p] [ 4.27 GB ] Десятка Храбрейших / Brave 10 TV [2012 самурайский HDTVRip ] MuR4ik Скачать
1 | 0
Discovery [ 701 MB ] Discovery: Десятка лучших танков/Top Ten Tank [2004 Документальный научно-популярный DVDRip] jora poker Скачать
1 | 0
Фильмы 2006-2008 [ 1.37 GB ] Попасть в десятку / Starter for 10 [2006 Молодежная DVDRip] -=Cherry=- Скачать
1 | 0


Последний раз редактировалось: _KaisiK_ (2014-12-23 08:23), всего редактировалось 1 раз

28-11-2019 20:33  

Отключить всю рекламу на сайте

15-10-2014 17:59 Десятка Скачать торрент  

Тупая тягомотина!!! Режиссер на пару вечеров попал в вечернее Бутово и возомнил себя Мартином Скортезе и дабы оправдать обделанные штанцы состряпл из заснятаного материала данный могзодробительный (на его взгляд , о жизни глубинки) шЕДЕВР.piratbit.org



    Дорогой пользователь! Огромная просьба, поблагодарите релизера, оцените раздачу и оставьте свои комментарий, если Вы скачали Десятка через торрент бесплатно! Внесите свою лепту в развитие PiratBit!
    Комментировать посты могут только пользователи прошедшие не сложную регистрацию
    Показать сообщения:    

    Десятка через торрент
    Скачать бесплатно Десятка
    Десятка скачать торрент
    Десятка смотреть онлайн
    Cкачать фильм Десятка бесплатно
    Десятка скачать торрент в хорошем качестве
    Десятка смотреть онлайн бесплатно в хорошем качестве


    Вы не можете начинать темы
    Вы не можете отвечать на сообщения
    Вы не можете редактировать свои сообщения
    Вы не можете удалять свои сообщения
    Вы не можете голосовать в опросах
    Вы не можете прикреплять файлы к сообщениям
    Вы можете скачивать файлы