1 сезон

3 сезон

iTunes

1

iTunes

MVO

iTunes

13

1 сезон

RePack

30

Deluxe

pack

Лицензия

ВАЖНО

ИГРА 18+

pack

RePack

MK11

RePack

jed

RePack

fifa19

RePack

RDR2

RePack

NEED FOR SPEED™ PAYBACK

4 сезон

9 сезон

Бесстыжие 9 сезон

Все сериалы

все сериалы на PB.wtf

RePack

FAR CRY 5

Anonymous, добрый вечер, мы катастрофически не успеваем собрать деньги на оплату серверов, помогите нам пожалуйста 5,10,15р., для нас важна любая помощь . В качестве благодарности мы отключим Вам всю рекламу на сайте (укажите свой ник в строку Ваше имя)!

×
  
Magnet ссылка

(Progressive rock, Egyptian folk, World) Misriat - Pink Floyd The Wall - 1999, FLAC (tracks), lossless piratbit.org

через торрент piratbit.org

Размер: 233 MB | Добавлен: 11 лет назад | Торрент скачан:112 раз
Скачать  

16-05-2010 21:57 Скачать торрент  

Misriat - Pink Floyd The Wall

Страна: Egyptian
Жанр: Progressive rock, Egyptian folk, World
Год выпуска: 1999
Формат: FLAC (tracks)
Битрейт аудио: lossless
Продолжительность: 41:20
Трэклист:

01 - Another Brick in the Wall
02 - Shine On You
03 - Money
04 - Hey You
05 - Time
06 - High Hopes
07 - Another Brick in the Wall

Доп. информация: Собственный рип.
Exact Audio Copy V0.99 prebeta 5 from 4. May 2009

EAC extraction logfile from 30. March 2010, 12:36

Misriat / Plays Pink Floyd

Used drive : HL-DT-STDVDRAM GSA-T20N Adapter: 0 ID: 0

Read mode : Secure
Utilize accurate stream : Yes
Defeat audio cache : Yes
Make use of C2 pointers : No

Read offset correction : 667
Overread into Lead-In and Lead-Out : No
Fill up missing offset samples with silence : Yes
Delete leading and trailing silent blocks : No
Null samples used in CRC calculations : Yes
Used interface : Installed external ASPI interface
Gap handling : Appended to previous track

Used output format : User Defined Encoder
Selected bitrate : 1024 kBit/s
Quality : High
Add ID3 tag : No
Command line compressor : C:\Program Files\Exact Audio Copy\FLAC\FLAC.EXE
Additional command line options : -8 -V -T "ARTIST=%a" -T "TITLE=%t" -T "ALBUM=%g" -T "DATE=%y" -T "TRACKNUMBER=%n" -T "GENRE=%m" -T "COMMENT=%e" %s -o %d

TOC of the extracted CD

Track | Start | Length | Start sector | End sector
---------------------------------------------------------
1 | 0:00.00 | 7:30.30 | 0 | 33779
2 | 7:30.30 | 7:04.15 | 33780 | 65594
3 | 14:34.45 | 4:52.02 | 65595 | 87496
4 | 19:26.47 | 3:41.65 | 87497 | 104136
5 | 23:08.37 | 4:39.33 | 104137 | 125094
6 | 27:47.70 | 6:58.62 | 125095 | 156506
7 | 34:46.57 | 4:15.03 | 156507 | 175634

Track 1

Filename D:\EAC Music\Misriat\01 - Another Brick in the Wall .wav

Pre-gap length 0:00:02.00

Peak level 95.3 %
Track quality 100.0 %
Test CRC 7FEA76CE
Copy CRC 7FEA76CE
Accurately ripped (confidence 1) [12A6E245]
Copy OK

Track 2

Filename D:\EAC Music\Misriat\02 - Shine On You .wav

Peak level 100.0 %
Track quality 100.0 %
Test CRC 3105E816
Copy CRC 3105E816
Accurately ripped (confidence 1) [DA420920]
Copy OK

Track 3

Filename D:\EAC Music\Misriat\03 - Money .wav

Peak level 89.7 %
Track quality 100.0 %
Test CRC D2FDE1BE
Copy CRC D2FDE1BE
Accurately ripped (confidence 1) [4C958584]
Copy OK

Track 4

Filename D:\EAC Music\Misriat\04 - Hey You .wav

Peak level 74.3 %
Track quality 100.0 %
Test CRC 122CB21E
Copy CRC 122CB21E
Accurately ripped (confidence 1) [A7AC9FB7]
Copy OK

Track 5

Filename D:\EAC Music\Misriat\05 - Time .wav

Peak level 77.2 %
Track quality 100.0 %
Test CRC 76DD0A37
Copy CRC 76DD0A37
Accurately ripped (confidence 1) [90F11D1C]
Copy OK

Track 6

Filename D:\EAC Music\Misriat\06 - High Hopes .wav

Peak level 87.6 %
Track quality 100.0 %
Test CRC 8ADC8AA7
Copy CRC 8ADC8AA7
Cannot be verified as accurate (confidence 1) [FC44D6E5], AccurateRip returned [A11BB2C3]
Copy OK

Track 7

Filename D:\EAC Music\Misriat\07 - Another Brick in the Wall [2] .wav

Peak level 86.6 %
Track quality 99.9 %
Test CRC BE306451
Copy CRC BE306451
Cannot be verified as accurate (confidence 1) [C25A4868], AccurateRip returned [E1ECF558]
Copy OK

5 track(s) accurately ripped
2 track(s) could not be verified as accurate

Some tracks could not be verified as accurate

No errors occurred

End of status report
REM GENRE "New Wave"
REM DATE 1999
REM DISCID 67092507
REM COMMENT "ExactAudioCopy v0.99pb5"
PERFORMER "Misriat"
TITLE "Plays Pink Floyd"
FILE "01 - Another Brick in the Wall .wav" WAVE
TRACK 01 AUDIO
TITLE "Another Brick in the Wall"
PERFORMER "Misriat"
INDEX 01 00:00:00
FILE "02 - Shine On You .wav" WAVE
TRACK 02 AUDIO
TITLE "Shine On You"
PERFORMER "Misriat"
INDEX 01 00:00:00
FILE "03 - Money .wav" WAVE
TRACK 03 AUDIO
TITLE "Money"
PERFORMER "Misriat"
INDEX 01 00:00:00
FILE "04 - Hey You .wav" WAVE
TRACK 04 AUDIO
TITLE "Hey You"
PERFORMER "Misriat"
INDEX 01 00:00:00
FILE "05 - Time .wav" WAVE
TRACK 05 AUDIO
TITLE "Time"
PERFORMER "Misriat"
INDEX 01 00:00:00
FILE "06 - High Hopes .wav" WAVE
TRACK 06 AUDIO
TITLE "High Hopes"
PERFORMER "Misriat"
INDEX 01 00:00:00
FILE "07 - Another Brick in the Wall [2] .wav" WAVE
TRACK 07 AUDIO
TITLE "Another Brick in the Wall [2]"
PERFORMER "Misriat"
INDEX 01 00:00:00
piratbit.org



Скачать через торрент http://i002.radikal.ru/1005/00/8a38d8ad751a.jpg Скачать фильм через торрент бесплантно в хорошем качестве Трэклист:01 - Another Brick in the Wall02 - Shine On You03 - Money04 - Hey You05 - Time06 - High Hopes07 - Another Brick in the ... 10 10 1
Info! Золотая раздача, скачанное не засчитывается.
Торрент: Зарегистрирован [2010-05-16 21:57] · скачан: 112 раз
Статус: √ проверено
Размер: 233 MB
Как cкачать? Как скачать через торрент | UTorrent

% Раздел Тема Автор DL S | L
Classic Rock & Hard Rock (lossless) [ 2.68 GB ] EVANESCENCE Дискография - 1998-2007 FLAC lossless ser_1985 Скачать
1 | 0
Eurodance, Technopop, Disco (lossless) [ 1.86 GB ] Dr. Alban Студийные альбомы - 5CD [FLAC lossless] tauras Скачать
1 | 0
Action FPS (1st Person) [ 8.89 GB ] Star Wars: The Force Unleashed - Ultimate Sith Edition [Lossless Repack RU/EN] от Druid =Чувак= Скачать
1 | 0
Архив (Alternative, Punk, Independent) [ 1.74 GB ] Breaking Benjamin - Дискография - 2001-2009 FLAC lossless King_IS_Back Скачать
1 | 0
Гоночные симуляторы [ 3.18 GB ] Дальнобойщик​и 3: Золотое Издание [Lossless Repack RU] от R.G. Catalyst roman3310i Скачать
1 | 0
Архив (Многоканальная музыка и собственные оцифровки) [ 405 MB ] Black Sabbath -Heaven & hell - 1980 DTS lossless staryirocker Скачать
1 | 0
RTS (стратегии в реальном времени) [ 4.21 GB ] Command & Conquer 4: Tiberian Twilight [Lossless RePackRUEA] Alex_Zeyn Скачать
1 | 0

28-11-2019 20:33  

Отключить всю рекламу на сайте

    Дорогой пользователь! Огромная просьба, поблагодарите релизера, оцените раздачу и оставьте свои комментарий, если Вы скачали через торрент бесплатно! Внесите свою лепту в развитие PiratBit!
    Комментировать посты могут только пользователи прошедшие не сложную регистрацию
    Показать сообщения:    

    через торрент
    Скачать бесплатно
    скачать торрент
    смотреть онлайн
    Cкачать фильм бесплатно
    скачать торрент в хорошем качестве
    смотреть онлайн бесплатно в хорошем качестве


    Вы не можете начинать темы
    Вы не можете отвечать на сообщения
    Вы не можете редактировать свои сообщения
    Вы не можете удалять свои сообщения
    Вы не можете голосовать в опросах
    Вы не можете прикреплять файлы к сообщениям
    Вы можете скачивать файлы