Marvel's Avengers Deluxe Edition (супер цена) 159р. Внимание количество ограничено!!!

2 сезон

iTunes

iTunes

1

iTunes

iTunes

iTunes

WEBRip

iTunes

30
pack

Новость дня

ВАЖНО

!!Акция!!

Alien_RageХит недели

RePack

Horizon Zero Dawn

ИГРА 18+

pack

RePack

jed

!!Акция!!

Alien_Rage

RePack

fifa19

RePack

Assassins Creed: Odyssey

RePack

NEED FOR SPEED™ PAYBACK

4 сезон

9 сезон

Бесстыжие 9 сезон

Все сериалы

все сериалы на PB.wtf

RePack

FAR CRY 5
  

Сокровище нации: Книга Тайн / National Treasure: Book of Secrets (Джон Тёртелтауб / Jon Turteltaub) [2007, США, боевик, триллер, детектив, BDRip] DUB Лицензия piratbit.org

Сокровище нации: Книга Тайн через торрент piratbit.org

Размер: 2.92 GB | Добавлен: 5 лет 11 мес. назад | Торрент скачан:345 раз
Скачать  

15-10-2014 23:54 Сокровище нации: Книга Тайн Скачать торрент  

Сокровище нации: Книга Тайн / National Treasure: Book of Secrets

Год выпуска: 2007
Страна: США
Жанр: боевик, триллер, детектив, приключения
Продолжительность: 02:04:32
Перевод: Дубляж - [Лицензия]
Субтитры: Отсутствует
Режиссер: Джон Тёртелтауб / Jon Turteltaub
В ролях:


Николас Кейдж (Ben Gates), Дайан Крюгер (Abigail Chase), Джастин Барта (Riley Poole), Джон Войт (Patrick Gates), Хелен Миррен (Emily Appleton), Эд Харрис (Mitch Wilkinson), Харви Кейтель (Sadusky), Брюс Гринвуд (The President), Тай Бурелл (Connor), Майкл Мейзе (Daniel), Тимоти В. Мерфи (Seth), Алисия Коппола (FBI Agent Spellman)

Описание:
Охотник за сокровищами Бен Гейтс, вооружившись поддержкой любимой женщины, верного друга Райли, а также своих родителей, отправляется на поиски затерянного золотого города. Только пройдя сквозь череду невероятных и увлекательных приключений, Бену удастся очистить имя своего предка от обвинений в убийстве Авраама Линкольна. Но не все так просто - параллельные поиски города ведет и некий Митч Уилкинсон, готовый на все ради достижения цели.

Рейтинг:
Бюджет:$130 000 000
MPAA: PG - Рекомендуется присутствие родителей
Качество: BDRip
Формат: AVI
Видео кодек:XviD
Аудио кодек:AC3
Видео: XviD, 720x304 (2.35:1), 1995 kbps, 23,976 fps, 0,380 bpp
Аудио №1: AC3 / 5.1 / 48 kHz / 448 kbps / 16 bit - Дублированный (Невафильм)
Аудио №2: AC3 / 5.1 / 48 kHz / 448 kbps / 16 bit - Профессиональный многоголосый (Superbit - СРИ)
Аудио №3: AC3 / 5.1 / 48 kHz / 448 kbps / 16 bit - Авторский одноголосый (А. Гаврилов)


General
Complete name : D:\Users\_KaisiK_\uTorrent\КИНО\National.Treasure.Book.of.Secrets.2007.Triple.BDRip.avi
Format : AVI
Format/Info : Audio Video Interleave
Format profile : OpenDML
File size : 2.92 GiB
Duration : 2h 4mn
Overall bit rate : 3 355 Kbps
Movie name : Сокровище нации: Книга Тайн / National Treasure: Book of Secrets (2007) BDRip
Genre : Боевик, триллер, детектив, приключения
Recorded date : 14.10.2014
Writing application : VirtualDubMod 1.5.10.3 | www.virtualdub-fr.org || (build 2550/release)
Writing library : VirtualDubMod build 2550/release
Copyright : rip by ivandubskoj

Video
ID : 0
Format : MPEG-4 Visual
Format profile : Advanced Simple@L5
Format settings, BVOP : 1
Format settings, QPel : No
Format settings, GMC : No warppoints
Format settings, Matrix : Custom
Codec ID : XVID
Codec ID/Hint : XviD
Duration : 2h 4mn
Bit rate : 1 995 Kbps
Width : 720 pixels
Height : 304 pixels
Display aspect ratio : 2.35:1
Frame rate : 23.976 fps
Color space : YUV
Chroma subsampling : 4:2:0
Bit depth : 8 bits
Scan type : Progressive
Compression mode : Lossy
Bits/(Pixel*Frame) : 0.380
Stream size : 1.74 GiB (59%)
Writing library : XviD 73

Audio #1
ID : 1
Format : AC-3
Format/Info : Audio Coding 3
Mode extension : CM (complete main)
Codec ID : 2000
Duration : 2h 4mn
Bit rate mode : Constant
Bit rate : 448 Kbps
Channel(s) : 6 channels
Channel positions : Front: L C R, Side: L R, LFE
Sampling rate : 48.0 KHz
Bit depth : 16 bits
Compression mode : Lossy
Stream size : 399 MiB (13%)
Alignment : Split accross interleaves
Interleave, duration : 64 ms (1.53 video frames)
Interleave, preload duration : 500 ms
Title : Russian, DUB [Невафильм]

Audio #2
ID : 2
Format : AC-3
Format/Info : Audio Coding 3
Mode extension : CM (complete main)
Codec ID : 2000
Duration : 2h 4mn
Bit rate mode : Constant
Bit rate : 448 Kbps
Channel(s) : 6 channels
Channel positions : Front: L C R, Side: L R, LFE
Sampling rate : 48.0 KHz
Bit depth : 16 bits
Compression mode : Lossy
Stream size : 399 MiB (13%)
Alignment : Split accross interleaves
Interleave, duration : 64 ms (1.53 video frames)
Interleave, preload duration : 500 ms
Title : Russian, MVO [Superbit - СРИ]

Audio #3
ID : 3
Format : AC-3
Format/Info : Audio Coding 3
Mode extension : CM (complete main)
Codec ID : 2000
Duration : 2h 4mn
Bit rate mode : Constant
Bit rate : 448 Kbps
Channel(s) : 6 channels
Channel positions : Front: L C R, Side: L R, LFE
Sampling rate : 48.0 KHz
Bit depth : 16 bits
Compression mode : Lossy
Stream size : 399 MiB (13%)
Alignment : Split accross interleaves
Interleave, duration : 64 ms (1.53 video frames)
Interleave, preload duration : 500 ms
Title : Russian, AVO [А. Гаврилов]

[/code]
piratbit.org



Скачать Сокровище нации: Книга Тайн через торрент http://i65.fastpic.ru/big/2014/1016/5e/caee8decf07eb5b5ab7a573ea963f05e.png Скачать фильм Сокровище нации: Книга Тайн через торрент бесплантно в хорошем качестве Описание: Охотник за сокровищами Бен Гейтс, вооружившись поддержкой любимой женщины, верного друга Райли, а также своих родителей, ... 10 10 11
Торрент: Зарегистрирован [2014-10-15 23:54] · скачан: 345 раз
Статус: √ проверено
Размер: 2.92 GB
Как cкачать? Как скачать Сокровище нации: Книга Тайн через торрент | qTorrent

28-11-2019 20:33  

Отключить всю рекламу на сайте

    Дорогой пользователь! Огромная просьба, поблагодарите релизера, оцените раздачу и оставьте свои комментарий, если Вы скачали Сокровище нации: Книга Тайн через торрент бесплатно! Внесите свою лепту в развитие PiratBit!
    Комментировать посты могут только пользователи прошедшие не сложную регистрацию
    Показать сообщения:    

    Сокровище нации: Книга Тайн через торрент
    Скачать бесплатно Сокровище нации: Книга Тайн
    Сокровище нации: Книга Тайн скачать торрент
    Сокровище нации: Книга Тайн смотреть онлайн
    Cкачать фильм Сокровище нации: Книга Тайн бесплатно
    Сокровище нации: Книга Тайн скачать торрент в хорошем качестве
    Сокровище нации: Книга Тайн смотреть онлайн бесплатно в хорошем качестве


    Вы не можете начинать темы
    Вы не можете отвечать на сообщения
    Вы не можете редактировать свои сообщения
    Вы не можете удалять свои сообщения
    Вы не можете голосовать в опросах
    Вы не можете прикреплять файлы к сообщениям
    Вы можете скачивать файлы