1 сезон

3 сезон

iTunes

1

iTunes

MVO

iTunes

13

1 сезон

RePack

30

Deluxe

pack

Лицензия

ВАЖНО

ИГРА 18+

pack

RePack

MK11

RePack

jed

RePack

fifa19

RePack

RDR2

RePack

NEED FOR SPEED™ PAYBACK

4 сезон

9 сезон

Бесстыжие 9 сезон

Все сериалы

все сериалы на PB.wtf

RePack

FAR CRY 5

Anonymous, добрый день, мы катастрофически не успеваем собрать деньги на оплату серверов, помогите нам пожалуйста 5,10,15р., для нас важна любая помощь . В качестве благодарности мы отключим Вам всю рекламу на сайте (укажите свой ник в строку Ваше имя)!

×
  
Magnet ссылка

Малышка на миллион / Million Dollar Baby (Клинт Иствуд / Clint Eastwood) [2004, США, драма, спорт, BDRip-AVC] DUB Лицензия piratbit.org

Малышка на миллион через торрент piratbit.org

Размер: 2.9 GB | Добавлен: 6 лет 9 мес. назад | Торрент скачан:219 раз
Скачать  

21-10-2014 09:25 Малышка на миллион Скачать торрент  

Малышка на миллион / Million Dollar Baby«Beyond his silence, there is a past. Beyond her dreams, there is a feeling. Beyond hope, there is a memory. Beyond their journey, there is a love»
Год выпуска: 2004
Страна: США
Жанр: драма, спорт
Продолжительность: 02:12:32
Перевод: Дубляж - [Лицензия]
Субтитры: Русские, английские
Режиссер: Клинт Иствуд / Clint Eastwood
В ролях:


Клинт Иствуд (Frankie Dunn), Хилари Суэнк (Maggie Fitzgerald), Морган Фриман (Eddie Scrap-Iron Dupris), Джей Барушель (Danger Barch), Майк Колтер (Big Willie Little), Люсия Рижкер (Billie «The Blue Bear»), Брайан Ф. О’Бирн (Father Horvak), Энтони Маки (Shawrelle Berry), Марго Мартиндейл (Earline Fitzgerald), Рики Линдхоум (Mardell Fitzgerald), Майкл Пенья (Omar), Бенито Мартинес (Billie's Manager)

Описание:
Тренер по боксу Фрэнк Данн переживает не лучшие времена. Из-за сложных отношений со своей дочерью он долгое время не позволял себе привязываться к кому-либо, боясь вновь пережить потерю. Однако все меняется, когда в его тренировочном зале появляется Мэгги. Существуя в постоянной борьбе с окружающим миром, Мэгги выработала в себе непоколебимую стойкость духа и волю к победе. Но больше всего на свете она хочет, чтобы в нее поверили.
Фрэнк не хочет брать на себя ответственность, однако упорство Мэгги побеждает. В водовороте жизненных перипетий эти двое осознают, что стремятся к одному и тому же: забыть прошлое и обрести семью. Впереди их ждет главное сражение жизни, для которого им потребуется собрать в своих сердцах столько мужества, сколько раньше они и представить себе не могли...

Рейтинг:
Бюджет:$30 000 000
MPAA: PG-13 - Детям до 13 лет просмотр не желателен
Качество: BDRip-AVC
Формат: MKV
Видео кодек:AVC
Аудио кодек:AC3
Видео: AVC, 1024x432 (2.35:1), 2231 kbps, 23,976 fps, 0,210 bpp
Аудио №1: русский / AC3 / 5.1 / 48 kHz / 448 kbps / 16 bit |Дубляж - [Лицензия]|
Аудио №2: английский / AC3 / 5.1 / 48 kHz / 448 kbps / 16 bit - (оригинал)


General
Unique ID : 206079338401339599086732091912218829465 (0x9B096FD7049EC4BF87E5585F61B56299)
Complete name : D:\Users\_KaisiK_\uTorrent\КИНО\Malyshka.na.million.2004.x264.BDRip(AVC).kinozal.tv.mkv
Format : Matroska
Format version : Version 2
File size : 2.90 GiB
Duration : 2h 12mn
Overall bit rate : 3 129 Kbps
Movie name : Million Dollar Baby (2004) - fanatus (kinozal.tv)
Encoded date : UTC 2010-12-25 01:04:10
Writing application : mkvmerge v3.4.0 ('Rapunzel') сборка от May 15 2010 09:38:20
Writing library : libebml v0.8.0 + libmatroska v0.9.0

Video
ID : 1
Format : AVC
Format/Info : Advanced Video Codec
Format profile : High@L4.1
Format settings, CABAC : Yes
Format settings, ReFrames : 5 frames
Codec ID : V_MPEG4/ISO/AVC
Duration : 2h 12mn
Bit rate : 2 231 Kbps
Width : 1 024 pixels
Height : 432 pixels
Display aspect ratio : 2.35:1
Frame rate : 23.976 fps
Color space : YUV
Chroma subsampling : 4:2:0
Bit depth : 8 bits
Scan type : Progressive
Bits/(Pixel*Frame) : 0.210
Stream size : 2.01 GiB (69%)
Title : Million Dollar Baby (2004)
Writing library : x264 core 112 r1834 a51816a
Encoding settings : cabac=1 / ref=5 / deblock=1:-3:-3 / analyse=0x3:0x133 / me=umh / subme=9 / psy=1 / psy_rd=1.00:0.00 / mixed_ref=1 / me_range=32 / chroma_me=1 / trellis=2 / 8x8dct=1 / cqm=0 / deadzone=21,11 / fast_pskip=0 / chroma_qp_offset=-4 / threads=6 / sliced_threads=0 / nr=0 / decimate=1 / interlaced=0 / constrained_intra=0 / bframes=6 / b_pyramid=2 / b_adapt=2 / b_bias=0 / direct=2 / weightb=1 / open_gop=0 / weightp=2 / keyint=250 / keyint_min=23 / scenecut=40 / intra_refresh=0 / rc_lookahead=80 / rc=2pass / mbtree=1 / bitrate=2231 / ratetol=1.0 / qcomp=0.60 / qpmin=10 / qpmax=51 / qpstep=4 / cplxblur=20.0 / qblur=0.5 / ip_ratio=1.40 / aq=1:0.80
Language : English
Default : Yes
Forced : No

Audio #1
ID : 2
Format : AC-3
Format/Info : Audio Coding 3
Mode extension : CM (complete main)
Codec ID : A_AC3
Duration : 2h 12mn
Bit rate mode : Constant
Bit rate : 448 Kbps
Channel(s) : 6 channels
Channel positions : Front: L C R, Side: L R, LFE
Sampling rate : 48.0 KHz
Bit depth : 16 bits
Compression mode : Lossy
Stream size : 425 MiB (14%)
Title : Dub
Language : Russian
Default : Yes
Forced : No

Audio #2
ID : 3
Format : AC-3
Format/Info : Audio Coding 3
Mode extension : CM (complete main)
Codec ID : A_AC3
Duration : 2h 12mn
Bit rate mode : Constant
Bit rate : 448 Kbps
Channel(s) : 6 channels
Channel positions : Front: L C R, Side: L R, LFE
Sampling rate : 48.0 KHz
Bit depth : 16 bits
Compression mode : Lossy
Stream size : 425 MiB (14%)
Title : Original
Language : English
Default : No
Forced : No

Text #1
ID : 4
Format : UTF-8
Codec ID : S_TEXT/UTF8
Codec ID/Info : UTF-8 Plain Text
Language : Russian
Default : No
Forced : No

Text #2
ID : 5
Format : UTF-8
Codec ID : S_TEXT/UTF8
Codec ID/Info : UTF-8 Plain Text
Language : English
Default : No
Forced : No

[/code]
piratbit.org



Скачать Малышка на миллион через торрент http://i63.fastpic.ru/big/2014/1021/5a/0eb4ab2c0f3a8204ecf68d5e33ccf55a.png Скачать фильм Малышка на миллион через торрент бесплантно в хорошем качестве Описание: Тренер по боксу Фрэнк Данн переживает не лучшие времена. Из-за сложных отношений со своей дочерью он долгое время не позволял ... 10 10 6
Торрент: Зарегистрирован [2014-10-21 09:25] · скачан: 219 раз
Статус: √ проверено
Размер: 2.9 GB
Как cкачать? Как скачать Малышка на миллион через торрент | UTorrent

28-11-2019 20:33  

Отключить всю рекламу на сайте

    Дорогой пользователь! Огромная просьба, поблагодарите релизера, оцените раздачу и оставьте свои комментарий, если Вы скачали Малышка на миллион через торрент бесплатно! Внесите свою лепту в развитие PiratBit!
    Комментировать посты могут только пользователи прошедшие не сложную регистрацию
    Показать сообщения:    

    Малышка на миллион через торрент
    Скачать бесплатно Малышка на миллион
    Малышка на миллион скачать торрент
    Малышка на миллион смотреть онлайн
    Cкачать фильм Малышка на миллион бесплатно
    Малышка на миллион скачать торрент в хорошем качестве
    Малышка на миллион смотреть онлайн бесплатно в хорошем качестве


    Вы не можете начинать темы
    Вы не можете отвечать на сообщения
    Вы не можете редактировать свои сообщения
    Вы не можете удалять свои сообщения
    Вы не можете голосовать в опросах
    Вы не можете прикреплять файлы к сообщениям
    Вы можете скачивать файлы