2 сезон

iTunes

MVO

1

2 сезон

iTunes

iTunes

1 сезон

RePack

30

Новинка

ВАЖНО

ИГРА 18+

pack

RePack

MK11
pack

Легкие деньги

RePack

jed

RePack

fifa19

RePack

RDR2

RePack

NEED FOR SPEED™ PAYBACK

4 сезон

9 сезон

Бесстыжие 9 сезон

Все сериалы

все сериалы на PB.wtf

RePack

FAR CRY 5

Anonymous, доброй ночи, мы не успеваем собрать деньги на оплату серверов за декабрь и январь, помогите нам пожалуйста в это трудное время. В качестве благодарности мы отключим Вам всю рекламу на сайте (укажите свой ник в строку Ваше имя)!

×
  
Magnet ссылка

Старик (Ермек Турсунов) [2012 г., драма, HDRip, Профессиональный одноголосое "Лицензия"] piratbit.org

Старик через торрент piratbit.org

Размер: 2.06 GB | Добавлен: 6 лет 2 мес. назад | Торрент скачан:245 раз
Скачать  

25-10-2014 17:24 Старик Скачать торрент  

Старик
Год выпуска: 2012
Страна: Казахстан / Kazakhfilm Studios
Жанр: драма
Продолжительность: 01:41:56
Перевод: Профессиональный одноголосый (Лицензия)

Режиссер: Ермек Турсунов

В ролях: Ерболат Тогузаков, Орынбек Молдахан, Исбек Абильмажинов, Ондас Бесикбасов, Ержан Бесикбасов, Ержан Нусипакынов, Олег Полторацких, Диана Мукушева, Аман Малдыбаев, Игорь Горшков

Описание: Небольшая семья — старик, невестка и внук — ведет обычную и ничем непримечательную жизнь в далекой степи. Им нельзя ссориться, хотя их общение весьма ограничено. Им нужно уметь прощать и быть прозорливыми, чтобы не расплескать по дороге важные истины. Им важно жить по-людски и важно, чтобы старик успел передать своему внуку главные ценности этой жизни.

Великая степная мораль о необходимости делать добро и не ждать в ответ благодарности, о неспешном и несуетном течении времени без жажды наживы и богатств, о неприхотливости и самодостаточности, о неразрывной связи с легендарным кочевым прошлым нынешних ее наследников…

Доп. информация: Ника, 2014 год Лучший фильм стран СНГ и Балтии

Качество: HDRip
Формат: AVI
Видео кодек: XviD
Аудио кодек: AC3
Видео: MPEG4, XviD, 720x384 (1.875), 25.000 fps, 2 493 Kbps (0.361 bit/pixel)
Аудио: AC-3, 48.0 KHz, 6 ch, 384 Kbps, CBR

скриншот   скриншот   скриншот   скриншот   скриншот   скриншот   скриншот   скриншот  

Общее
Полное имя : G:\кино\Старик.2012.HDRip.avi
Формат : AVI
Формат/Информация : Audio Video Interleave
Профиль формата : OpenDML
Размер файла : 2,06 Гбайт
Продолжительность : 1 ч. 41 м.
Общий поток : 2889 Кбит/сек
Программа кодирования : VirtualDubMod 1.5.10.3 | www.virtualdub-fr.org || (build 2550/release)
Библиотека кодирования : VirtualDubMod build 2550/release

Видео
Идентификатор : 0
Формат : MPEG-4 Visual
Профиль формата : Advanced Simple@L5
Параметр BVOP формата : 1
Параметр QPel формата : Нет
Параметр GMC формата : Без точки перехода
Параметр матрицы формата : Default (MPEG)
Идентификатор кодека : XVID
Идентификатор кодека/Подсказка : XviD
Продолжительность : 1 ч. 41 м.
Битрейт : 2493 Кбит/сек
Ширина : 720 пикселей
Высота : 384 пикселя
Соотношение сторон : 1,85:1
Частота кадров : 25,000 кадров/сек
Цветовое пространство : YUV
Субдискретизация насыщенности : 4:2:0
Битовая глубина : 8 бит
Тип развёртки : Прогрессивная
Метод сжатия : С потерями
Бит/(Пиксели*Кадры) : 0.361
Размер потока : 1,77 Гбайт (86%)
Библиотека кодирования : XviD 1.2.1 (UTC 2008-12-04)

Аудио
Идентификатор : 1
Формат : AC-3
Формат/Информация : Audio Coding 3
Расширение режима : CM (complete main)
Параметр Endianness формата : Big
Идентификатор кодека : 2000
Продолжительность : 1 ч. 41 м.
Вид битрейта : Постоянный
Битрейт : 384 Кбит/сек
Каналы : 6 каналов
Расположение каналов : Front: L C R, Side: L R, LFE
Частота : 48,0 КГц
Битовая глубина : 16 бит
Метод сжатия : С потерями
Размер потока : 280 Мбайт (13%)
Выравнивание : Разделение по промежуткам
Продолжительность промежутка : 40 мс. (1,00 видеокадр)
Время предзагрузки промежутка : 500 мс.

piratbit.org



Скачать Старик через торрент http://pic.kartinco.top/images/7/ybeji.jpg Скачать фильм Старик через торрент бесплантно в хорошем качестве Описание: Небольшая семья — старик, невестка и внук — ведет обычную и ничем непримечательную жизнь в далекой степи. Им нельзя ссориться, ... 10 10 8
Торрент: Зарегистрирован [2014-10-25 17:24] · скачан: 245 раз
Статус: √ проверено
Размер: 2.06 GB
Как cкачать? Как скачать Старик через торрент | UTorrent

% Раздел Тема Автор DL S | L
Фильмы 2018 [DVDrip, WEB-DLRip, HDrip] (DUB, MVO) [ 1.46 GB ] Старик с пистолетом / The Old Man & the Gun [2018 BDRip] - [] Twi7ter Скачать
11 | 0
Фильмы (Blu-ray, BD-Remux, HDDVD) [ 20.75 GB ] Старик с пистолетом / The Old Man & the Gun [2018 биография Blu-Ray 1080p] DUB [] bober100 Скачать
1 | 0
Документальные фильмы и телепередачи [ 663 MB ] Старикам здесь не место? Тайсон против Джонса [2020 документальный SATRip] bober100 Скачать
1 | 0
Наши фильмы, до 2010 [ 1.35 GB ] В бой идут одни старики [1973 Военный DVDRip] paul08 Скачать
1 | 0
Фильмы [HD 720p, 1080p] (Хороший звук DUB, MVO) [ 7.36 GB ] Старик с пистолетом / The Old Man & the Gun [2018 биография BDRip 720p] +AVO [М. Яроцкий ] bober100 Скачать
2 | 0
Фильмы (Blu-ray, BD-Remux, HDDVD) [ 25.36 GB ] Старик с пистолетом / The Old Man & the Gun [2018 биография BD Remux 1080p] +AVO [М. Яроцкий ] bober100 Скачать
1 | 0
Фильмы 2018 [DVDrip, WEB-DLRip, HDrip] (DUB, MVO) [ 747 MB ] Старик с пистолетом / The Old Man & the Gun [2018 биография BDRip] DUB [ Blu-ray RUS] bober100 Скачать
1 | 0

28-11-2019 20:33  

Отключить всю рекламу на сайте

25-10-2014 17:47 Старик Скачать торрент  

Нормуль сняли :shoot2:piratbit.org



27-10-2014 08:53 Старик Скачать торрент  

Отличный фильм!piratbit.org



16-11-2014 13:45 Старик Скачать торрент  

скукотаpiratbit.org



    Дорогой пользователь! Огромная просьба, поблагодарите релизера, оцените раздачу и оставьте свои комментарий, если Вы скачали Старик через торрент бесплатно! Внесите свою лепту в развитие PiratBit!
    Комментировать посты могут только пользователи прошедшие не сложную регистрацию
    Показать сообщения:    

    Старик через торрент
    Скачать бесплатно Старик
    Старик скачать торрент
    Старик смотреть онлайн
    Cкачать фильм Старик бесплатно
    Старик скачать торрент в хорошем качестве
    Старик смотреть онлайн бесплатно в хорошем качестве


    Вы не можете начинать темы
    Вы не можете отвечать на сообщения
    Вы не можете редактировать свои сообщения
    Вы не можете удалять свои сообщения
    Вы не можете голосовать в опросах
    Вы не можете прикреплять файлы к сообщениям
    Вы можете скачивать файлы