Ссылка на приватное зеркало нашего сайта всего за 1$. Внимание количество ограничено!!!

2 сезон

iTunes

1 сезон

1

iTunes

iTunes

iTunes

1 сезон

RePack

30

ИГРА 18+

pack

ВАЖНО

!!Акция!!

Alien_RageХит недели

RePack

MK11
pack

Забери бонус

RePack

jed

!!Акция!!

Alien_Rage

RePack

fifa19

RePack

Assassins Creed: Odyssey

RePack

NEED FOR SPEED™ PAYBACK

4 сезон

9 сезон

Бесстыжие 9 сезон

Все сериалы

все сериалы на PB.wtf

RePack

FAR CRY 5
  

Под каким ты знаком? / Di che segno sei? (Серджио Корбуччи) [1975 г.,Адриано Челентано, Комедия, DVDRip, Любительский одноголосый] piratbit.org

Под каким ты знаком? через торрент piratbit.org

Размер: 700 MB | Добавлен: 5 лет 11 мес. назад | Торрент скачан:13 раз
Скачать  

26-10-2014 13:45 Под каким ты знаком? Скачать торрент  

Под каким ты знаком? / Di che segno sei?
Год выпуска: 1975
Страна: Италия
Жанр: Новеллы, Комедия
Продолжительность: 02:09:00
Перевод: Любительский одноголосый
Субтитры: Нет

Режиссер: Серджио Корбуччи
Продюссер: Франко Кристальди
Сценарий: Марио Амендола, Франко Кастеллано, Серджо Корбуччи, Джузеппе Моччиа, Альберто Сорди
Композитор:Лелио Луттацци

В ролях: Паоло Вилладжо, Адриано Челентано, Марианджела Мелато, Ренато Поццетто, Джованна Ралли, Альберто Сорди, Лучано Сальче, Уго Болонья, Илеана Карати, Массимо Болди, Марилда Донья и др.

Описание: В первой новелле лоцману выпадает шанс сменить мужской пол на женский; во второй события «вертятся» вокруг танцевального конкурса; в новелле «Земля» простому каменщику предоставляется возможность провести день в качестве миллионера; а в четвёртой новелле показаны приключения назойливого телохранителя.

Качество: DVDRip
Формат: AVI
Видео кодек: XviD
Аудио кодек: MP3
Видео: 640 x 368, 25fps, 625kbps
Аудио#1: 48000Hz 128 kb/s total (2 chnls)










General
Complete name : H:\КЛАССИКА США\под каким-то знаком.avi
Format : AVI
Format/Info : Audio Video Interleave
File size : 700 MiB
Duration : 2h 8mn
Overall bit rate : 759 Kbps
Writing application : VirtualDubMod 1.5.4.1 (build 2178/release)
Writing library : VirtualDubMod build 2178/release

Video
ID : 0
Format : MPEG-4 Visual
Format profile : Advanced Simple@L5
Format settings, BVOP : Yes
Format settings, QPel : No
Format settings, GMC : No warppoints
Format settings, Matrix : Custom
Codec ID : XVID
Codec ID/Hint : XviD
Duration : 2h 8mn
Bit rate : 623 Kbps
Width : 640 pixels
Height : 368 pixels
Display aspect ratio : 1.739
Frame rate : 25.000 fps
Color space : YUV
Chroma subsampling : 4:2:0
Bit depth : 8 bits
Scan type : Progressive
Compression mode : Lossy
Bits/(Pixel*Frame) : 0.106
Stream size : 575 MiB (82%)
Writing library : XviD 1.1.0 (UTC 2005-11-22)

Audio
ID : 1
Format : MPEG Audio
Format version : Version 1
Format profile : Layer 3
Mode : Joint stereo
Mode extension : MS Stereo
Codec ID : 55
Codec ID/Hint : MP3
Duration : 2h 8mn
Bit rate mode : Constant
Bit rate : 128 Kbps
Channel(s) : 2 channels
Sampling rate : 48.0 KHz
Compression mode : Lossy
Stream size : 118 MiB (17%)
Alignment : Aligned on interleaves
Interleave, duration : 80 ms (2.00 video frames)
Interleave, preload duration : 504 ms
Writing library : LAME3.97b
Encoding settings : -m j -V 4 -q 2 -lowpass 17 -b 128
Language : Russian

piratbit.org



Скачать Под каким ты знаком? через торрент http://i65.fastpic.ru/big/2014/1026/09/63cba25be34406d8729509be192e2409.jpg Скачать фильм Под каким ты знаком? через торрент бесплантно в хорошем качестве Описание: В первой новелле лоцману выпадает шанс сменить мужской пол на женский; во второй события «вертятся» вокруг танцевального ... 10 10 2
Торрент: Зарегистрирован [2014-10-26 13:45] · скачан: 13 раз
Статус: √ проверено
Размер: 700 MB
Как cкачать? Как скачать Под каким ты знаком? через торрент | qTorrent

28-11-2019 20:33  

Отключить всю рекламу на сайте

    Дорогой пользователь! Огромная просьба, поблагодарите релизера, оцените раздачу и оставьте свои комментарий, если Вы скачали Под каким ты знаком? через торрент бесплатно! Внесите свою лепту в развитие PiratBit!
    Комментировать посты могут только пользователи прошедшие не сложную регистрацию
    Показать сообщения:    

    Под каким ты знаком? через торрент
    Скачать бесплатно Под каким ты знаком?
    Под каким ты знаком? скачать торрент
    Под каким ты знаком? смотреть онлайн
    Cкачать фильм Под каким ты знаком? бесплатно
    Под каким ты знаком? скачать торрент в хорошем качестве
    Под каким ты знаком? смотреть онлайн бесплатно в хорошем качестве


    Вы не можете начинать темы
    Вы не можете отвечать на сообщения
    Вы не можете редактировать свои сообщения
    Вы не можете удалять свои сообщения
    Вы не можете голосовать в опросах
    Вы не можете прикреплять файлы к сообщениям
    Вы можете скачивать файлы