Ссылка на приватное зеркало нашего сайта всего за 1$. Внимание количество ограничено!!!

2 сезон

iTunes

1 сезон

1

iTunes

iTunes

iTunes

1 сезон

RePack

30

ИГРА 18+

pack

ВАЖНО

!!Акция!!

Alien_RageХит недели

RePack

MK11
pack

Забери бонус

RePack

jed

!!Акция!!

Alien_Rage

RePack

fifa19

RePack

Assassins Creed: Odyssey

RePack

NEED FOR SPEED™ PAYBACK

4 сезон

9 сезон

Бесстыжие 9 сезон

Все сериалы

все сериалы на PB.wtf

RePack

FAR CRY 5
  

Орёл или Решка / Pari e dispari (Серджио Корбуччи) [1978 г., Комедия, приключения, DVDRip, Профессиональный двухголосый] piratbit.org

Орёл или Решка через торрент piratbit.org

Размер: 700 MB | Добавлен: 5 лет 11 мес. назад | Торрент скачан:34 раза
Скачать  

26-10-2014 15:01 Орёл или Решка Скачать торрент  

Орёл или Решка / Pari e dispari
Год выпуска: 1978
Страна: Италия
Жанр: Комедия, приключения
Продолжительность: 01:49:00
Перевод: Профессиональный двухголосый
Субтитры: Нет

Режиссер: Серджио Корбуччи
Сценарий: Марио Амендола,

В ролях: Теренс Хилл /Terence Hill/, Бад Спенсер /Bud Spencer/, Лючано Катеначчи /Luciano Catenacci/, Marisa Laurito /Мариса Лаурито/ и др.

Описание: После того, как лейтенанта Джонни Фирпо лишает победы спортивная мафия, подстроив поломку мотора скутера, терпению командования военно-морских сил приходит конец. Джонни посылают разобраться с игорной мафией, проникшей во все спортивные мероприятия во Флориде. И неоценимую помощь в этом деле ему окажет его брат Чарли…

Качество: DVDRip
Формат: AVI
Видео кодек: XviD
Аудио кодек: MP3
Видео: Xvid 512x384 25fps 793kbps
Аудио#1: 48000 Гц, Stereo, 96 Kbps










General
Complete name : H:\КЛАССИКА США\Орёл или Решка.avi
Format : AVI
Format/Info : Audio Video Interleave
File size : 700 MiB
Duration : 1h 49mn
Overall bit rate mode : Variable
Overall bit rate : 892 Kbps
Writing application : VirtualDubMod 1.5.4.1 (build 2178/release)
Writing library : VirtualDubMod build 2178/release

Video
ID : 0
Format : MPEG-4 Visual
Format profile : Advanced Simple@L5
Format settings, BVOP : Yes
Format settings, QPel : No
Format settings, GMC : No warppoints
Format settings, Matrix : Custom
Codec ID : XVID
Codec ID/Hint : XviD
Duration : 1h 49mn
Bit rate : 793 Kbps
Width : 512 pixels
Height : 384 pixels
Display aspect ratio : 4:3
Frame rate : 25.000 fps
Color space : YUV
Chroma subsampling : 4:2:0
Bit depth : 8 bits
Scan type : Progressive
Compression mode : Lossy
Bits/(Pixel*Frame) : 0.161
Stream size : 622 MiB (89%)
Writing library : XviD 1.2.0SMP (UTC 2006-01-08)

Audio
ID : 1
Format : MPEG Audio
Format version : Version 1
Format profile : Layer 3
Mode : Joint stereo
Mode extension : MS Stereo
Codec ID : 55
Codec ID/Hint : MP3
Duration : 1h 49mn
Bit rate mode : Variable
Bit rate : 85.6 Kbps
Nominal bit rate : 128 Kbps
Channel(s) : 2 channels
Sampling rate : 48.0 KHz
Compression mode : Lossy
Stream size : 67.2 MiB (10%)
Alignment : Aligned on interleaves
Interleave, duration : 24 ms (0.60 video frame)
Interleave, preload duration : 513 ms
Writing library : LAME3.97b
Encoding settings : -m j -V 4 -q 2 -lowpass 17 --abr 128

piratbit.org



Скачать Орёл или Решка через торрент http://i67.fastpic.ru/big/2014/1026/f6/7f70fc2f74eb2b17be8b49724f7bc1f6.jpg Скачать фильм Орёл или Решка через торрент бесплантно в хорошем качестве Описание: После того, как лейтенанта Джонни Фирпо лишает победы спортивная мафия, подстроив поломку мотора скутера, терпению командования ... 10 10 6
Торрент: Зарегистрирован [2014-10-27 16:32] · скачан: 34 раз
Статус: √ проверено
Размер: 700 MB
Как cкачать? Как скачать Орёл или Решка через торрент | qTorrent



Последний раз редактировалось: Magnat (2014-10-26 15:19), всего редактировалось 1 раз

28-11-2019 20:33  

Отключить всю рекламу на сайте

27-10-2014 16:34 Орёл или Решка Скачать торрент  

Перезолил торрент файл, а то какие то стопоря конкретные, личи есть а у меня не кто не забирает, желающие скачть попробуйте еще раз.piratbit.org



27-10-2014 16:36 Орёл или Решка Скачать торрент  

Ну вот и пошла движуха :))) наконец, а то я вчера весь вечер ждал сидов :)))piratbit.org



27-10-2014 16:48 Орёл или Решка Скачать торрент  

Magnat писал(а):

Ну вот и пошла движуха :))) наконец, а то я вчера весь вечер ждал сидов :)))

DVDRip немудрено ждать *движуху*... BDRip 720p -это бы взяли:) или просто BDRip
разница в картинке -это главный аргумент
например с BDRip
piratbit.org



28-10-2014 18:55 Орёл или Решка Скачать торрент  

Assasinca писал(а):

[qpost=undefined]DVDRip немудрено ждать *движуху*... BDRip 720p -это бы взяли:) или просто BDRipразница в картинке -это главный аргументнапример с BDRip

Да дело не в этом, личи было 6 человек, красным горели, а у меня в торент клиенте никто не забирал, вот в чем дело :)))) Был реальный глюк в раздаче или в самом файле-торренте :((((

Assasinca писал(а):

[qpost=undefined]например с BDRip

Ну раз снял картинку значит есть сам фильм, залей а этот удалим.piratbit.org



30-10-2014 16:39 Орёл или Решка Скачать торрент  

Как фильм?piratbit.org



30-10-2014 18:59 Орёл или Решка Скачать торрент  

vitus82 писал(а):

[qpost=undefined]Как фильм?

А где ты видел старую плохую комедию, все комедии до 85 года можешь качать смело, гарантия 90% что понравится.piratbit.org



17-03-2015 08:32 Орёл или Решка Скачать торрент  

Хороший филмец))=))piratbit.org



    Дорогой пользователь! Огромная просьба, поблагодарите релизера, оцените раздачу и оставьте свои комментарий, если Вы скачали Орёл или Решка через торрент бесплатно! Внесите свою лепту в развитие PiratBit!
    Комментировать посты могут только пользователи прошедшие не сложную регистрацию
    Показать сообщения:    

    Орёл или Решка через торрент
    Скачать бесплатно Орёл или Решка
    Орёл или Решка скачать торрент
    Орёл или Решка смотреть онлайн
    Cкачать фильм Орёл или Решка бесплатно
    Орёл или Решка скачать торрент в хорошем качестве
    Орёл или Решка смотреть онлайн бесплатно в хорошем качестве


    Вы не можете начинать темы
    Вы не можете отвечать на сообщения
    Вы не можете редактировать свои сообщения
    Вы не можете удалять свои сообщения
    Вы не можете голосовать в опросах
    Вы не можете прикреплять файлы к сообщениям
    Вы можете скачивать файлы