Лицензия

MVO

1

1 сезон

Лицензия

Лицензия

13

MVO

1 сезон

Deluxe Edition

pack

Рекомендуем

30

Repack

ВАЖНО

ВАЖНО

Ghostwire

RePack

jed

RePack

fifa19

RePack

RDR2

RePack

NEED FOR SPEED™ PAYBACK

RePack

Кинопоиск HD

 Острые козырьки 6 сезон

6 сезон

FAR CRY 6

RePack

Лицензия

MVO

1

1 сезон

1 сезон

Лицензия

  

Игра престолов (Гематрония) / Game of Thrones / Сезон: 1 / Серии: 1-8 из 10 (Алан Тейлор, Даниэль Минахан, Дэвид Наттер) [2014, Пародия, HDTVRip] - Смешной перевод Какого-то Беса

Игра престолов через торрент piratbit.org

Размер: 5.38 GB | Добавлен: 7 лет 10 мес. назад | Торрент скачан:165 раз
Смотреть онлайн Игра престолов | Скачать   

28-10-2014 20:29 Игра престолов Скачать торрент  

Игра престолов (Гематрония) / Game of Thrones

Год выпуска: 2014
Выпущено:: США, Великобритания, Bighead Littlehead, Created By, Generator Entertainment, Home Box Office (HBO), Television 360
Жанр: Пародия, Драма, Приключения, Фэнтези
Длительность: 00:58:00 (Серия)
Перевод: Любительский одноголосый (смешной перевод Какого-то Беса)

Режиссер: Алан Тейлор, Даниэль Минахан, Дэвид Наттер

В ролях: Лина Хиди, Питер Динклэйдж, Мишель Фэйрли, Эмилия Кларк, Кит Харингтон, Николай Костер-Валдау, Иэн Глен, Эйден Гиллен, Элфи Оуэн-Аллен, Мэйси Уильямс, Софи Тёрнер, Джек Глисон, Исаак Хемпстид-Райт, Ричард Мэдден, Джером Флинн, Конлет Хилл, Дональд Самптер, Рори МакКанн, Амрита Ачария, Чарльз Дэнс, Джон Брэдли, Кристиан Нэйрн, Сибель Кекилли, Джеймс Космо, Стивен Диллэйн, Гетин Энтони, Гвендолин Кристи, Натали Дормер, Уна Чаплин

Описание:
Альтернативный взгляд на популярный сериал "Игра престолов" по мотивам саги Джорджа Мартина "Песня Льда и Пламени". Чисто инициатива фаната книжной серии. Все в меру - мат, забавные моменты, троллинг и прочее... . К концу подходит время благоденствия, и лето, длившееся несколько десятилетий, угасает. Вокруг средоточия власти Семи королевств, Железного трона, зреет заговор, и в это непростое время король решает искать поддержки у друга юности Эддарда Старка. В мире, где все — от короля до наемника — рвутся к власти, плетут интриги и готовы вонзить нож в спину, есть место и благородству, состраданию и любви. Между тем, никто не замечает пробуждение тьмы из легенд далеко на Севере — и лишь Стена защищает живых к югу от нее. Экранизация по произведению: Джордж Р.Р. Мартин.

Рейтинг:


Качество: HDTVRip
Формат: AVI
Видео кодек: XviD
Аудио кодек: MP3
Видео: 720x400, 1300 kbps, 23,976 fps, 0,187 bpp
Аудио#1: русский / 2.0 / 48 kHz / 128 kbps / 16 bit
Внимание! Раздача ведётся путём добавления новых серий; при каждом добавлении создаётся новый торрент. Чтобы начать докачку новой серии, пользователям необходимо сделать следующее:
(1) остановить скачивание,
(2) удалить старый торрент у себя из клиента (старые серии удалять не надо),
(3) скачать новый торрент и запустить его у себя в клиенте вместо старого, при этом указать клиенту путь в старую папку куда и должно происходить скачивание новых серий.
Ваш клиент при этом должен произвести хеширование (проверку) старой папки (если не производит сам - помогите ему сделать это), и будет докачивать только те серии которых у вас ещё нет. Старые серии при этом не удаляются, а продолжают раздаваться!
Eсли вы уже удалили старые серии, то предотвратить повторную закачку старых серий можно, отжав галочку в соответсвующих местах при запуске нового торрента. По возможности, желательно не удалять старые серии как можно дольше чтобы релизёр не столько продолжал раздавать старые серии, а смог сконцентрироваться на новых.




Общее
Полное имя : D:\uTorrent\Gematronia\gematronia_s01e01.avi
Формат : AVI
Формат/Информация : Audio Video Interleave
Размер файла : 706 Мбайт
Продолжительность : 1 ч. 2 м.
Общий поток : 1587 Кбит/сек

Видео
Идентификатор : 0
Формат : MPEG-4 Visual
Профиль формата : Advanced Simple@L5
Параметр BVOP формата : 2
Параметр QPel формата : Нет
Параметр GMC формата : Без точки перехода
Параметр матрицы формата : Default (H.263)
Режим смешивания : Сжатый битовый поток
Идентификатор кодека : XVID
Идентификатор кодека/Подсказка : XviD
Продолжительность : 1 ч. 2 м.
Битрейт : 1383 Кбит/сек
Ширина : 720 пикселей
Высота : 400 пикселей
Соотношение сторон : 16:9
Частота кадров : 29,970 кадров/сек
Цветовое пространство : YUV
Субдискретизация насыщенности : 4:2:0
Битовая глубина : 8 бит
Тип развёртки : Прогрессивная
Метод сжатия : С потерями
Бит/(Пиксели*Кадры) : 0.160
Размер потока : 616 Мбайт (87%)
Библиотека кодирования : XviD 1.2.0.dev47 (UTC 2006-11-01)

Аудио
Идентификатор : 1
Формат : MPEG Audio
Версия формата : Version 1
Профиль формата : Layer 3
Идентификатор кодека : 55
Идентификатор кодека/Подсказка : MP3
Продолжительность : 1 ч. 2 м.
Вид битрейта : Постоянный
Битрейт : 192 Кбит/сек
Каналы : 2 канала
Частота : 44,1 КГц
Метод сжатия : С потерями
Размер потока : 85,5 Мбайт (12%)
Выравнивание : Разделение по промежуткам
Продолжительность промежутка : 33 мс. (1,00 видеокадр)
Библиотека кодирования : LAMELAME_MAJOR_VERSI




Скачать Игра престолов через торрент http://kartinko.org/image_library/1/61890.jpg Скачать, смотреть онлайн Игра престолов бесплантно в хорошем качестве Описание: Альтернативный взгляд на популярный сериал "Игра престолов" по мотивам саги Джорджа Мартина "Песня Льда и Пламени". Чисто ... 8.9 10 10
Info! Золотая раздача, скачанное не засчитывается.
Торрент: Зарегистрирован [2014-10-28 20:29] · скачан: 165 раз
Статус: # сомнительно
Размер: 5.38 GB
Как cкачать? Как скачать Игра престолов через торрент | UTorrent




Последний раз редактировалось: _Fenixx_ни мужик ни баба (2014-10-28 21:33), всего редактировалось 3 раз(а)

28-11-2019 20:33  

Отключить вcю реклaмy на сайте

28-10-2014 21:00 Игра престолов Скачать торрент  

_Fenixx_ писал(а):

[qpost=undefined]Перевод: Смешной перевод гоблина

Д. Пучков этот сериал не озвучивал, кто автор перевода?

Добавьте сэмпл. Как это сделать можно прочитать тут:
http://pb.wtf/topic/16298
Длина сэмпла от 1 до 3х минут, в этот промежуток должен попасть диалог.
Готовый сэмпл залейте на sendfile.su

Об исправлении сообщите в лс со ссылкой на раздачу.



29-10-2014 00:42 Игра престолов Скачать торрент  

 
Отличная озвучка! Саундтрек просто шикарный. Шутки весьма достойные.
10 из 10!



    Дорогой пользователь! Огромная просьба, поблагодарите релизера, оцените раздачу и оставьте свои комментарий, если Вы скачали Игра престолов через торрент бесплатно!!
    Комментировать посты могут только пользователи прошедшие не сложную регистрацию
    Показать сообщения:    


    Игра престолов через торрент
    Скачать бесплатно Игра престолов
    Игра престолов скачать торрент
    Игра престолов смотреть онлайн
    Cкачать фильм Игра престолов бесплатно
    Игра престолов скачать торрент в хорошем качестве
    Игра престолов смотреть онлайн бесплатно в хорошем качестве
    Вы не можете начинать темы
    Вы не можете отвечать на сообщения
    Вы не можете редактировать свои сообщения
    Вы не можете удалять свои сообщения
    Вы не можете голосовать в опросах
    Вы не можете прикреплять файлы к сообщениям
    Вы можете скачивать файлы