Доктор Стрэндж

Лицензия

Добыча

Дубляж

Дом дракона

1 сезон

Тор

Дубляж

В эфире

Дубляж

Там, где раки поют

MVO

Властелин колец

1 сезон

Deluxe

pack

Рекомендуем

30

Пиратка

ВАЖНО

ВАЖНО

Ghostwire

Пиратка

jed

RePack

nioh2

RePack

RDR2

RePack

NEED FOR SPEED™ PAYBACK

RePack

скачать торрент

Кинопоиск HD

Острые козырьки 6 сезон

6 сезон

FAR CRY 6

RePack

скачать торрент

Лицензия

скачать торрент

MVO

1

1 сезон

скачать торрент

1 сезон

скачать торрент

Лицензия

  

Волк-полицейский / WolfCop [2014, ужасы, комедия, BDRip 720p] VO

Волк-полицейский через торрент piratbit.org

Размер: 3.38 GB | Добавлен: 8 лет 1 мес. назад | Торрент скачан:61 раз
Смотреть онлайн | Скачать   

29-10-2014 13:04 Волк-полицейский Скачать торрент  

Название: Волк-полицейский

Оригинальное название: WolfCop

Год выхода: 2014

Выпущено: Канада

Продолжительность: 01:18:54

Озвучивание: Любительское (одноголосое) [xixidok]

Жанр: ужасы, комедия

Режиссер: Лоуелл Дин

В ролях: Лео Фафард, Эми Матисио, Джонатан Черри, Сара Линд, Эйдан Дивайн, Джесси Мосс, Корина Конли, Джеймс Уиттингэм, Риланд Александр, Laura Abramsen

Описание: Это не редкость для полицейского-алкоголика Лу напиваться до потери сознания, а затем просыпаться в незнакомых местах, но однажды с ним начинают происходить странные вещи…



Файл

Формат: MKV

Качество: BDRip 720p

Видео кодек: AVC

Аудио кодек:DTS, AC3

Видео: 5177 kb/s, 1280x720 , 23.976 fps

Аудио1: Russian: AC3, 192 kb/s (2 ch) 44.1 KHz

Аудио2: English: DTS, 755 kb/s, (6 ch)48.0 KHz
General
Unique ID : 218377050225671125960983284334712477547 (0xA449E3D85409EEB2BB1324B15DDE576B)
Complete name : D:\Торенты\Wolfcop.2014.L1.BDRip.720p.mkv
Format : Matroska
Format version : Version 4 / Version 2
File size : 3.38 GiB
Duration : 1h 18mn
Overall bit rate : 6 137 Kbps
Encoded date : UTC 2014-10-28 20:40:01
Writing application : mkvmerge v6.1.0 ('Old Devil') built on Mar 4 2013 09:10:42
Writing library : libebml v1.3.0 + libmatroska v1.4.0
DURATION : 01:18:54.902000000
NUMBER_OF_FRAMES : 443897
NUMBER_OF_BYTES : 454550528
_STATISTICS_WRITING_APP : mkvmerge v7.0.0 ('Where We Going') 32bit built on Jun 9 2014 15:08:34
_STATISTICS_WRITING_DATE_UTC : 2014-10-14 14:36:54
_STATISTICS_TAGS : BPS DURATION NUMBER_OF_FRAMES NUMBER_OF_BYTES

Video
ID : 1
Format : AVC
Format/Info : Advanced Video Codec
Format profile : High@L4.1
Format settings, CABAC : Yes
Format settings, ReFrames : 5 frames
Codec ID : V_MPEG4/ISO/AVC
Duration : 1h 18mn
Bit rate : 5 177 Kbps
Width : 1 280 pixels
Height : 720 pixels
Display aspect ratio : 16:9
Frame rate mode : Constant
Frame rate : 23.976 fps
Color space : YUV
Chroma subsampling : 4:2:0
Bit depth : 8 bits
Scan type : Progressive
Bits/(Pixel*Frame) : 0.234
Stream size : 2.79 GiB (82%)
Writing library : x264 core 142 r2479 dd79a61
Encoding settings : cabac=1 / ref=5 / deblock=1:0:0 / analyse=0x3:0x133 / me=umh / subme=7 / psy=1 / psy_rd=1.00:0.00 / mixed_ref=1 / me_range=16 / chroma_me=1 / trellis=1 / 8x8dct=1 / cqm=0 / deadzone=21,11 / fast_pskip=0 / chroma_qp_offset=-2 / threads=12 / lookahead_threads=2 / sliced_threads=0 / nr=0 / decimate=1 / interlaced=0 / bluray_compat=0 / constrained_intra=0 / bframes=3 / b_pyramid=2 / b_adapt=2 / b_bias=0 / direct=3 / weightb=1 / open_gop=0 / weightp=2 / keyint=250 / keyint_min=23 / scenecut=40 / intra_refresh=0 / rc_lookahead=50 / rc=2pass / mbtree=1 / bitrate=5177 / ratetol=1.0 / qcomp=0.60 / qpmin=0 / qpmax=69 / qpstep=4 / cplxblur=20.0 / qblur=0.5 / ip_ratio=1.40 / aq=1:1.00
Language : English
Default : Yes
Forced : No
DURATION : 01:18:54.939000000
NUMBER_OF_FRAMES : 113525
NUMBER_OF_BYTES : 3062370812
_STATISTICS_WRITING_APP : mkvmerge v7.0.0 ('Where We Going') 32bit built on Jun 9 2014 15:08:34
_STATISTICS_WRITING_DATE_UTC : 2014-10-14 14:36:54
_STATISTICS_TAGS : BPS DURATION NUMBER_OF_FRAMES NUMBER_OF_BYTES

Audio #1
ID : 2
Format : AC-3
Format/Info : Audio Coding 3
Mode extension : CM (complete main)
Format settings, Endianness : Big
Codec ID : A_AC3
Duration : 1h 18mn
Bit rate mode : Constant
Bit rate : 192 Kbps
Channel(s) : 2 channels
Channel positions : Front: L R
Sampling rate : 44.1 KHz
Bit depth : 16 bits
Compression mode : Lossy
Stream size : 108 MiB (3%)
Language : Russian
Default : Yes
Forced : No

Audio #2
ID : 3
Format : DTS
Format/Info : Digital Theater Systems
Mode : 16
Format settings, Endianness : Big
Codec ID : A_DTS
Duration : 1h 18mn
Bit rate mode : Constant
Bit rate : 768 Kbps
Channel(s) : 6 channels
Channel positions : Front: L C R, Side: L R, LFE
Sampling rate : 48.0 KHz
Bit depth : 24 bits
Compression mode : Lossy
Stream size : 433 MiB (13%)
Language : English
Default : No
Forced : No

Menu
00:00:00.000 : en:00:00:00.000
00:05:39.297 : en:00:05:39.297
00:12:07.352 : en:00:12:07.352
00:17:58.661 : en:00:17:58.661
00:24:25.923 : en:00:24:25.923
00:30:06.263 : en:00:30:06.263
00:37:08.768 : en:00:37:08.768
00:42:11.446 : en:00:42:11.446
00:48:23.692 : en:00:48:23.692
00:54:27.222 : en:00:54:27.222
01:00:38.426 : en:01:00:38.426
01:06:42.624 : en:01:06:42.624





Скачать Волк-полицейский через торрент http://i65.fastpic.ru/big/2014/1028/ec/6f66c6342ce8c76b7f7fbb059751ceec.jpg Скачать, смотреть онлайн Волк-полицейский бесплантно в хорошем качестве Описание: Это не редкость для полицейского-алкоголика Лу напиваться до потери сознания, а затем просыпаться в незнакомых местах, но ... 10 10 3
Торрент: Зарегистрирован [2014-10-29 13:04] · скачан: 61 раз
Статус: T временная
Размер: 3.38 GB
Как cкачать? Как скачать Волк-полицейский через торрент | UTorrent

% Раздел Тема Автор DL S | L
T Фильмы 2014 (Звук TS, Cam, VO, DVO) [ 1.38 GB ] Волк-полицейский / WolfCop [2014, ужасы, комедия, HDRip | | HDRip Ворон Скачать
1 | 0

28-11-2019 20:33  


Отключить вcю реклaмy на сайте, в т.ч. и в плеере онлайн просмотра!

29-10-2014 13:27 Волк-полицейский Скачать торрент  

шедевр однозначно sarcastic



29-10-2014 14:33 Волк-полицейский Скачать торрент  

неповторимый))))))



01-11-2014 09:42 Волк-полицейский Скачать торрент  

ожидал большего-оказалась жутко дешевая бредятина-еле досмотрел раз уж начал



    Дорогой пользователь! Огромная просьба, поблагодарите релизера, оцените раздачу и оставьте свои комментарий, если Вы скачали Волк-полицейский через торрент бесплатно!!
    Комментировать посты могут только пользователи прошедшие не сложную регистрацию
    Показать сообщения:    


    Волк-полицейский через торрент
    Скачать бесплатно Волк-полицейский
    Волк-полицейский скачать торрент
    Волк-полицейский смотреть онлайн
    Cкачать фильм Волк-полицейский бесплатно
    Волк-полицейский скачать торрент в хорошем качестве
    Волк-полицейский смотреть онлайн бесплатно в хорошем качестве
    Вы не можете начинать темы
    Вы не можете отвечать на сообщения
    Вы не можете редактировать свои сообщения
    Вы не можете удалять свои сообщения
    Вы не можете голосовать в опросах
    Вы не можете прикреплять файлы к сообщениям
    Вы можете скачивать файлы
    Волк-полицейский / WolfCop [2014, ужасы, комедия, BDRip 720p] VO смотреть онлайн, скачать торрент picoco.icu