2 сезон

iTunes

WEBRip

1

2 сезон

iTunes

1 сезон

1 сезон

RePack

30

Новинка

ВАЖНО

ИГРА 18+

pack

RePack

MK11
pack

Легкие деньги

RePack

jed

RePack

fifa19

RePack

RDR2

RePack

NEED FOR SPEED™ PAYBACK

4 сезон

9 сезон

Бесстыжие 9 сезон

Все сериалы

все сериалы на PB.wtf

RePack

FAR CRY 5

Anonymous, доброй ночи, мы не успеваем собрать деньги на оплату серверов за февраль, помогите нам пожалуйста в это трудное время. В качестве благодарности мы отключим Вам всю рекламу на сайте (укажите свой ник в строку Ваше имя)!

×
  
Magnet ссылка

Вероника Марс / Вероніка Марс (Роб Томас) [2014, драма, комедия, криминал, BDRip 720p] [MVO] (Омикрон) piratbit.org

Вероника Марс через торрент piratbit.org

Размер: 1.94 GB | Добавлен: 6 лет 4 мес. назад | Торрент скачан:79 раз
Скачать  

31-10-2014 08:00 Вероника Марс Скачать торрент  

Вероника Марс / Вероніка Марс / Veronica Mars
Год выхода: 2014
Жанр: драма, комедия, криминал
Выпущено: США
Продолжительность: 01:47:37
Перевод: Украинский профессиональный (многоголосный, закадровый) [Омикрон]
Cубтитры: Английские (внешние*srt)

Режиссер: Роб Томас

В ролях: Кристен Белл, Джейсон Доринг, Кристен Риттер, Райан Хансен, Фрэнсис Капра, Перси Даггс III, Крис Лоуэлл, Тина Мажорино, Энрико Колантони, Джеймс Франко

Описание:
Когда-то помогая отцу распутывать преступления в родном городе Нептун, Вероника Марс понимала, что это не будет длиться вечно. Уехав в Нью-Йорк и получив должность адвоката в хорошей фирме, она была уверена, что вырвалась из замкнутого круга. Она ошибалась. Ее бывший парень Логан Экхолз обвиняется в убийстве своей подруги - молодой старлетки. Приняв решение помочь ему, Вероника возвращается в Нептун и начинает собственное расследование. Внезапно она оказывается в самой гуще событий, окруженная друзьями и врагами. И самый большой вопрос - кому можно верить, а кому - нет...


Релиз --

Качество: BDRip 720p
Формат: MKV
Видео кодек: h.264
Аудио кодек: AC3
Видео: V_MPEG4/ISO/AVC , 1679 kb/s, 1280x532, 23,976 fps
Аудио #1: 48 kHz, AC3 Dolby Digital, 3/2 (L,C,R,l,r) + LFE ch, ~448.00 kbps avg (UKR)
Аудио #2: 48 kHz, AC3 Dolby Digital, 3/2 (L,C,R,l,r) + LFE ch, ~448.00 kbps avg (ENG)

Цитата:

Украинский перевод создан благодаря пользователям сайта HURTOM

Благодарности спонсорам: [Captain], 4оrnyi, andnic, Anisimov Ivan, ArPoHoM, Aussie, awesome555, beller mia, BMK12, bovchyk, Bushido, Corwind, DaVoSe, deepfree, detonator1980, Dim-ON, dimon287, dimon387, dmaxim93, dmaxim93, don pedro, Dr.Cruncher, dunay, Duran, DеLight, edu07, elwolf, F_r_e_n_k, Fizia, forest17, forman1848, gaidamack, genauk, genauk, Golota, guriu, Gxost, Hello_ZB, igg, igor911, ilitbr, Immort, iva730, ivan vyrvyvuho, jabka, kahler, Kibonster, Kjam, Klen-Yavir, knedlyk, kpripper, kucher, kum33, Kush82, lejlafatiha, LeSSeR09, LudCok, lyolikaa, makstur, mamaMaria, Masanchick, MasterYura, maxun, mehlis1980, mich, morg, msi-145, NemoInFire, nemos, Nolex, okay, oleg.filyuk, OlehSH, Oleksandra, Oleshko, Olkos, ortt11 та Вишгород, OviniX, padla, pai1ripe, panama58, patlatyj1000, patriot2305, pesko, Pivoman, pony, ppau, Pylorama, Qualcuno, Rentoksana, romdoc, Roni, ros21, RST, rybanok27, sash_ok, sergey.sobol, serzholino, shakhtar3000, shtein, skuline, Snuryus, somnambula, Sovist, strategbob, super_sonic, Symargl12, TarasD, tbutko, Thaddeus, Timir, Tyler, V.P.Staryk, veto, VicOd, vifilo, Vikk, vilnuy, Virakocha (Тарас Юрах), Visent, Vovchyck, wantedeffect, whiteinwolf, Wivern, Woldemarchyk, Woldemarchyk, WorldMaster, xaoc1024, xBohdan, xfsthe, yarik_ratnik, zaika, дяк, Конечний Ростислав, Леді22, Надія, Надія, павло, чомусь, aromatherapy, Infoserfer

Код:

General
Unique ID : 202226695531648397599655882364925266106 (0x982371E18D1B8BCEA868A3FC98EC48BA)
Complete name : Veronica Mars (2014) [ukr,eng] BDRip 720p [Hurtom].mkv
Format : Matroska
Format version : Version 4 / Version 2
File size : 1.94 GiB
Duration : 1h 47mn
Overall bit rate : 2 578 Kbps
Movie name : Вероніка Марс / Veronica Mars (2014) [Hurtom]
Encoded date : UTC 2014-07-05 17:32:12
Writing application : mkvmerge v7.0.0 ('Where We Going') 32bit built on Jun 9 2014 15:08:34
Writing library : libebml v1.3.0 + libmatroska v1.4.1
DURATION : 01:46:18.090000000
NUMBER_OF_FRAMES : 1715
NUMBER_OF_BYTES : 67908
_STATISTICS_WRITING_APP : mkvmerge v7.0.0 ('Where We Going') 32bit built on Jun 9 2014 15:08:34
_STATISTICS_WRITING_DATE_UTC : 2014-07-05 17:32:12
_STATISTICS_TAGS : BPS DURATION NUMBER_OF_FRAMES NUMBER_OF_BYTES
Attachment : Yes

Video
ID : 1
Format : AVC
Format/Info : Advanced Video Codec
Format profile : High@L4.1
Format settings, CABAC : Yes
Format settings, ReFrames : 8 frames
Codec ID : V_MPEG4/ISO/AVC
Duration : 1h 47mn
Bit rate : 1 631 Kbps
Width : 1 280 pixels
Height : 532 pixels
Display aspect ratio : 2.40:1
Frame rate mode : Constant
Frame rate : 23.976 fps
Color space : YUV
Chroma subsampling : 4:2:0
Bit depth : 8 bits
Scan type : Progressive
Bits/(Pixel*Frame) : 0.100
Stream size : 1.23 GiB (63%)
Writing library : x264 core 138 r2358 9e941d1
Encoding settings : cabac=1 / ref=8 / deblock=1:-1:-1 / analyse=0x3:0x133 / me=umh / subme=10 / psy=1 / psy_rd=1.00:0.15 / mixed_ref=1 / me_range=32 / chroma_me=1 / trellis=2 / 8x8dct=1 / cqm=0 / deadzone=21,11 / fast_pskip=0 / chroma_qp_offset=-3 / threads=12 / lookahead_threads=1 / sliced_threads=0 / nr=0 / decimate=1 / interlaced=0 / bluray_compat=0 / constrained_intra=0 / bframes=3 / b_pyramid=2 / b_adapt=2 / b_bias=0 / direct=3 / weightb=1 / open_gop=0 / weightp=2 / keyint=240 / keyint_min=23 / scenecut=40 / intra_refresh=0 / rc_lookahead=60 / rc=crf / mbtree=1 / crf=19.0 / qcomp=0.60 / qpmin=0 / qpmax=69 / qpstep=4 / vbv_maxrate=31250 / vbv_bufsize=31250 / crf_max=0.0 / nal_hrd=none / ip_ratio=1.40 / aq=1:1.00
Default : Yes
Forced : No
DURATION : 01:47:38.703000000
NUMBER_OF_FRAMES : 154854
NUMBER_OF_BYTES : 1356054254
_STATISTICS_WRITING_APP : mkvmerge v7.0.0 ('Where We Going') 32bit built on Jun 9 2014 15:08:34
_STATISTICS_WRITING_DATE_UTC : 2014-07-05 17:32:12
_STATISTICS_TAGS : BPS DURATION NUMBER_OF_FRAMES NUMBER_OF_BYTES

Audio #1
ID : 2
Format : AC-3
Format/Info : Audio Coding 3
Mode extension : CM (complete main)
Format settings, Endianness : Big
Codec ID : A_AC3
Duration : 1h 47mn
Bit rate mode : Constant
Bit rate : 448 Kbps
Channel(s) : 6 channels
Channel positions : Front: L C R, Side: L R, LFE
Sampling rate : 48.0 KHz
Bit depth : 16 bits
Compression mode : Lossy
Stream size : 345 MiB (17%)

Language : Ukrainian
Default : Yes
Forced : No

Audio #2
ID : 3
Format : AC-3
Format/Info : Audio Coding 3
Mode extension : CM (complete main)
Format settings, Endianness : Big
Codec ID : A_AC3
Duration : 1h 47mn
Bit rate mode : Constant
Bit rate : 448 Kbps
Channel(s) : 6 channels
Channel positions : Front: L C R, Side: L R, LFE
Sampling rate : 48.0 KHz
Bit depth : 16 bits
Compression mode : Lossy
Stream size : 345 MiB (17%)
Title : Original
Language : English
Default : No
Forced : No

Text
ID : 4
Format : UTF-8
Codec ID : S_TEXT/UTF8
Codec ID/Info : UTF-8 Plain Text
Title : Original
Language : English
Default : No
Forced : No

piratbit.org



Скачать Вероника Марс через торрент http://i64.fastpic.ru/big/2014/1031/24/bfad9d7fcd2f75be7651afc58eba5324.jpg Скачать фильм Вероника Марс через торрент бесплантно в хорошем качестве Описание: Когда-то помогая отцу распутывать преступления в родном городе Нептун, Вероника Марс понимала, что это не будет длиться вечно. ... 7.4 10 7
Торрент: Зарегистрирован [2014-10-31 08:00] · скачан: 79 раз
Статус: # сомнительно
Размер: 1.94 GB
Как cкачать? Как скачать Вероника Марс через торрент | UTorrent

% Раздел Тема Автор DL S | L
Зарубежные сериалы [ 60.39 GB ] Вероника Марс / Veronica Mars / Сезон: 3 / Серии: 1-20 из 20 [2007 нео-нуар WEB-DL 1080p] [MVO] killermax2013 Скачать
1 | 0
Зарубежные сериалы [ 12.76 GB ] Вероника Марс / Veronica Mars / Сезон: 4 / Серии: 1-8 из 8 [2019 нео-нуар WEB-DL 1080p] [MVO] killermax2013 Скачать
1 | 0
Зарубежные сериалы [ 44.87 GB ] Вероника Марс / Veronica Mars / Сезон: 4 / Серии 1-8 из 8 [2006 UHD WEB-DL 2160p] [SDR] 2xMVO [IdeaFilm BaibaKo] sheker187 Скачать
1 | 0
Фильмы [HD 720p, 1080p] (Хороший звук DUB, MVO) [ 4.09 GB ] Вероника Марс [2014 BDRip 720p MVO ZohanTvir Скачать
1 | 0
Фильмы 2014 [DVDrip, WEB-DLRip, HDrip] [ 1.46 GB ] Вероника Марс [2014 HDRip MVO] [Официальный звук] GEKADOL Скачать
1 | 0
Фильмы (Blu-ray, BD-Remux, HDDVD) [ 21.68 GB ] Вероника Марс [2014 BDRemux [BaibaKo] Ворон Скачать
1 | 0
Фильмы 2014 [DVDrip, WEB-DLRip, HDrip] [ 1.37 GB ] Вероника Марс [2014 HDRip [BaibaKo] Ворон Скачать
1 | 0

28-11-2019 20:33  

Отключить всю рекламу на сайте

    Дорогой пользователь! Огромная просьба, поблагодарите релизера, оцените раздачу и оставьте свои комментарий, если Вы скачали Вероника Марс через торрент бесплатно! Внесите свою лепту в развитие PiratBit!
    Комментировать посты могут только пользователи прошедшие не сложную регистрацию
    Показать сообщения:    

    Вероника Марс через торрент
    Скачать бесплатно Вероника Марс
    Вероника Марс скачать торрент
    Вероника Марс смотреть онлайн
    Cкачать фильм Вероника Марс бесплатно
    Вероника Марс скачать торрент в хорошем качестве
    Вероника Марс смотреть онлайн бесплатно в хорошем качестве


    Вы не можете начинать темы
    Вы не можете отвечать на сообщения
    Вы не можете редактировать свои сообщения
    Вы не можете удалять свои сообщения
    Вы не можете голосовать в опросах
    Вы не можете прикреплять файлы к сообщениям
    Вы можете скачивать файлы