Ссылка на приватное зеркало нашего сайта всего за 1$. Внимание количество ограничено!!!

2 сезон

iTunes

1 сезон

1

iTunes

iTunes

iTunes

1 сезон

RePack

30

ИГРА 18+

pack

ВАЖНО

!!Акция!!

Alien_RageХит недели

RePack

MK11
pack

Забери бонус

RePack

jed

!!Акция!!

Alien_Rage

RePack

fifa19

RePack

Assassins Creed: Odyssey

RePack

NEED FOR SPEED™ PAYBACK

4 сезон

9 сезон

Бесстыжие 9 сезон

Все сериалы

все сериалы на PB.wtf

RePack

FAR CRY 5
  

Частные владения СС / Private House of the SS (Бруно Маттеи / Bruno Mattei) [1977 г., Триллер,Военная драма., DVDRip, Профессиональный одноголосый] piratbit.org

Частные владения СС через торрент piratbit.org

Размер: 1.36 GB | Добавлен: 5 лет 11 мес. назад | Торрент скачан:191 раз
Скачать  

08-11-2014 09:48 Частные владения СС Скачать торрент  

Частные владения СС / Private House of the SS
Год выпуска: 1977
Страна: Италия
Жанр: Триллер,Военная драма.
Продолжительность: 01:33:13
Перевод: Профессиональный одноголосый

Режиссер: Бруно Маттеи / Bruno Mattei

В ролях: Альдо Формизано, Анна Мелита, Вассили Керис, Габриэль Каррара, Гота Гоберт, Джованни Аттанасио, Ивано Стаччоли, Кристина Минутелли, Лучиано Пигоцци, Лучик Боголюб Бенни, Люче Грегори, Марина Дауниа, Маша Магалл, Моника Никел, Сальваторе Баккаро, Тамара Триффе, Томас Руди, Уолтер Брэнди, Эоло Капритти

Описание: Сотрудники СС создают частный публичный дом СС, девочки которого должны выведывать секреты и выявлять предателей Рейха. Готовят из них и убийц, что могут ликвидировать неугодных… Тех из девушек, кто отказывается от такой благородной роли, ждут пытки и казнь. Несогласных зверски насилуют. И фильм этот вовсе не заканчивается традиционным «хэппи-эндом», после бурной оргии в «частном доме» остаются только трупы. Тайна должна уйти вместе с ее носителями…

Качество: DVDRip
Формат: AVI
Видео кодек: XviD
Аудио кодек: AC3
Видео: 688x384 (1.79:1), 23.976 fps, 1892 kbps
Аудио#1: 48 kHz, AC3 Dolby Digital, 2/0 (L,R) ch, ~192 Kbps




















General
Complete name : H:\КЛАССИКА\Частные владения СС.avi
Format : AVI
Format/Info : Audio Video Interleave
File size : 1.36 GiB
Duration : 1h 33mn
Overall bit rate : 2 093 Kbps
Writing application : VirtualDubMod 1.5.10.2 (build 2540/release)
Writing library : VirtualDubMod build 2540/release

Video
ID : 0
Format : MPEG-4 Visual
Format profile : Advanced Simple@L5
Format settings, BVOP : Yes
Format settings, QPel : No
Format settings, GMC : No warppoints
Format settings, Matrix : Default (MPEG)
Codec ID : XVID
Codec ID/Hint : XviD
Duration : 1h 33mn
Bit rate : 1 892 Kbps
Width : 688 pixels
Height : 384 pixels
Display aspect ratio : 16:9
Frame rate : 23.976 fps
Color space : YUV
Chroma subsampling : 4:2:0
Bit depth : 8 bits
Scan type : Progressive
Compression mode : Lossy
Bits/(Pixel*Frame) : 0.299
Stream size : 1.23 GiB (90%)
Writing library : XviD 1.2.0.dev47 (UTC 2006-11-01)

Audio
ID : 1
Format : AC-3
Format/Info : Audio Coding 3
Mode extension : CM (complete main)
Format settings, Endianness : Big
Codec ID : 2000
Duration : 1h 33mn
Bit rate mode : Constant
Bit rate : 192 Kbps
Channel(s) : 2 channels
Channel positions : Front: L R
Sampling rate : 48.0 KHz
Bit depth : 16 bits
Compression mode : Lossy
Stream size : 128 MiB (9%)
Alignment : Split accross interleaves
Interleave, duration : 42 ms (1.00 video frame)
Interleave, preload duration : 500 ms

piratbit.org



Скачать Частные владения СС через торрент http://i65.fastpic.ru/big/2014/1108/6a/3fcb7771c55793dde893952d99733c6a.jpg Скачать фильм Частные владения СС через торрент бесплантно в хорошем качестве Описание: Сотрудники СС создают частный публичный дом СС, девочки которого должны выведывать секреты и выявлять предателей Рейха. Готовят ... 8 10 11
Торрент: Зарегистрирован [2014-11-08 09:48] · скачан: 191 раз
Статус: √ проверено
Размер: 1.36 GB
Как cкачать? Как скачать Частные владения СС через торрент | qTorrent

28-11-2019 20:33  

Отключить всю рекламу на сайте

08-11-2014 09:50 Частные владения СС Скачать торрент  

Судя по спросу выложенного мною фильма http://pb.wtf/topic/160786/
решил продолжить эту тему.piratbit.org



08-11-2014 11:02 Частные владения СС Скачать торрент  

давно итальянцы немецкое порно снимают ? )))piratbit.org



08-11-2014 11:20 Частные владения СС Скачать торрент  

SWERD писал(а):

[qpost=undefined]давно итальянцы немецкое порно снимают ?

Дружище ты ошибся разделом, порно здесь http://pb.wtf/cat/13/piratbit.org



08-11-2014 14:36 Частные владения СС Скачать торрент  

ни к войне, ни к драме серии этого треша никогда не имели - это чистейшее БДСМ-порно 1970-х.

Magnat писал(а):

порно здесь http://pb.wtf/cat/13/

тем более странно, что весь этот треш не в указанном соответствующем разделе.piratbit.org



08-11-2014 15:56 Частные владения СС Скачать торрент  

sergunka писал(а):

[qpost=undefined]это чистейшее БДСМ-порно 1970-х.

Что такое порно:
Непристойное, вульгарное и безнравственное изображение, или же словесное описание полового акта (половых актов) с целью достичь сексуального возбуждения
Отсутствие изображения душевных переживаний человека и его естественной сексуальности.
Изображение половых органов и полового акта в художественном и научном контексте не является порнографией, так как в данном случае целью является не сексуальное возбуждение аудитории, а прояснение особенностей анатомии, физиологии и психологии человека.
--------------------------------------------------------------------------------------------------------------------------piratbit.org



    Дорогой пользователь! Огромная просьба, поблагодарите релизера, оцените раздачу и оставьте свои комментарий, если Вы скачали Частные владения СС через торрент бесплатно! Внесите свою лепту в развитие PiratBit!
    Комментировать посты могут только пользователи прошедшие не сложную регистрацию
    Показать сообщения:    

    Частные владения СС через торрент
    Скачать бесплатно Частные владения СС
    Частные владения СС скачать торрент
    Частные владения СС смотреть онлайн
    Cкачать фильм Частные владения СС бесплатно
    Частные владения СС скачать торрент в хорошем качестве
    Частные владения СС смотреть онлайн бесплатно в хорошем качестве


    Вы не можете начинать темы
    Вы не можете отвечать на сообщения
    Вы не можете редактировать свои сообщения
    Вы не можете удалять свои сообщения
    Вы не можете голосовать в опросах
    Вы не можете прикреплять файлы к сообщениям
    Вы можете скачивать файлы