Ссылка на приватное зеркало нашего сайта всего за 1$. Внимание количество ограничено!!!

2 сезон

iTunes

1 сезон

1

iTunes

iTunes

iTunes

1 сезон

RePack

30

ИГРА 18+

pack

ВАЖНО

!!Акция!!

Alien_RageХит недели

RePack

MK11
pack

Забери бонус

RePack

jed

!!Акция!!

Alien_Rage

RePack

fifa19

RePack

Assassins Creed: Odyssey

RePack

NEED FOR SPEED™ PAYBACK

4 сезон

9 сезон

Бесстыжие 9 сезон

Все сериалы

все сериалы на PB.wtf

RePack

FAR CRY 5
  

Ильза: Свирепая тюремщица (фильм третий) / Ilsa - Haus ohne Manner (Хесус Франко) /Jesus Franco) [1977 г., Ужасы, Триллер., DVDRip, Профессиональный одноголосый] piratbit.org

Ильза: Свирепая тюремщица через торрент piratbit.org

Размер: 1.23 GB | Добавлен: 5 лет 11 мес. назад | Торрент скачан:157 раз
Скачать  

08-11-2014 17:23 Ильза: Свирепая тюремщица Скачать торрент  

Ильза: Свирепая тюремщица (фильм третий) / Ilsa - Haus ohne Manner
Год выпуска: 1977
Страна: США, Швейцария, Германия (ФРГ)
Жанр: Ужасы, Триллер.
Продолжительность: 01:34:07
Перевод: Профессиональный одноголосый

Режиссер: Хесус Франко /Jesus Franco

В ролях: Диан Торн /Dyanne Thorne/, Лина Ромэй /Lina Romay/, Таня Бусселье /Tania Busselier/, Хесус Франко /Jesus Franco/, Эрик Фальк /Eric Falk

Описание: «Третий фильм из серии про зловредную Ильзу. “Эта позорная женщина Ильза вернулась”»
1975 год, Южная Америка. Ильза руководит клиникой Лас Паломас, предназначенной для лечения женщин с отклонениями сексуального характера. На самом же деле Лас Паломас - тюрьма для политзаключенных, которую спонсирует правительство, где пленников пытают и унижают, дабы узнать у них сведения о главарях повстанцев. Эбби Филипс отправляется туда, чтобы найти свою сестру и собрать данные о том, что на самом деле творится в клинике, но попадает в лапы Ильзы...

Качество: DVDRip
Формат: AVI
Видео кодек: XviD
Аудио кодек: AC3
Видео: 720x432, 23.976fps, 1465kbps
Аудио#1: Dolby AC3 48000Hz stereo 192kbps
























General
Complete name : H:\КЛАССИКА\Ильза – свирепая тюремщица фильм 3.avi
Format : AVI
Format/Info : Audio Video Interleave
Format profile : OpenDML
File size : 1.23 GiB
Duration : 1h 34mn
Overall bit rate : 1 870 Kbps
Writing application : Lavf51.12.1

Video
ID : 0
Format : MPEG-4 Visual
Format profile : Simple@L1
Format settings, BVOP : No
Format settings, QPel : No
Format settings, GMC : No warppoints
Format settings, Matrix : Default (H.263)
Codec ID : FMP4
Duration : 1h 34mn
Bit rate : 1 466 Kbps
Width : 720 pixels
Height : 432 pixels
Display aspect ratio : 1.667
Frame rate : 23.976 fps
Color space : YUV
Chroma subsampling : 4:2:0
Bit depth : 8 bits
Scan type : Progressive
Compression mode : Lossy
Bits/(Pixel*Frame) : 0.197
Stream size : 988 MiB (78%)
Writing library : Lavc51.40.4

Audio #1
ID : 1
Format : AC-3
Format/Info : Audio Coding 3
Mode extension : CM (complete main)
Format settings, Endianness : Big
Codec ID : 2000
Duration : 1h 34mn
Bit rate mode : Constant
Bit rate : 192 Kbps
Channel(s) : 2 channels
Channel positions : Front: L R
Sampling rate : 48.0 KHz
Bit depth : 16 bits
Compression mode : Lossy
Stream size : 129 MiB (10%)
Alignment : Aligned on interleaves
Interleave, duration : 32 ms (0.77 video frame)
Interleave, preload duration : 32 ms

Audio #2
ID : 2
Format : AC-3
Format/Info : Audio Coding 3
Mode extension : CM (complete main)
Format settings, Endianness : Big
Codec ID : 2000
Duration : 1h 34mn
Bit rate mode : Constant
Bit rate : 192 Kbps
Channel(s) : 2 channels
Channel positions : Front: L R
Sampling rate : 48.0 KHz
Bit depth : 16 bits
Compression mode : Lossy
Stream size : 129 MiB (10%)
Alignment : Aligned on interleaves
Interleave, duration : 32 ms (0.77 video frame)
Interleave, preload duration : 32 ms

piratbit.org



Скачать Ильза: Свирепая тюремщица через торрент http://i65.fastpic.ru/big/2014/1108/eb/232360c6ead4875b8c634007387fadeb.jpg Скачать фильм Ильза: Свирепая тюремщица через торрент бесплантно в хорошем качестве Описание: «Третий фильм из серии про зловредную Ильзу. “Эта позорная женщина Ильза вернулась”» 1975 год, Южная Америка. Ильза руководит ... 7.2 10 13
Info! Золотая раздача, скачанное не засчитывается.
Торрент: Зарегистрирован [2014-11-08 17:23] · скачан: 157 раз
Статус: √ проверено
Размер: 1.23 GB
Как cкачать? Как скачать Ильза: Свирепая тюремщица через торрент | qTorrent



Последний раз редактировалось: Magnat (2014-11-08 21:02), всего редактировалось 1 раз

28-11-2019 20:33  

Отключить всю рекламу на сайте

08-11-2014 17:26 Ильза: Свирепая тюремщица Скачать торрент  

Продолжение про Ильзу по просьбе трудящихся.
Ждите продолжение и приятного просмотра!!!!!piratbit.org



08-11-2014 17:39 Ильза: Свирепая тюремщица Скачать торрент  

Где интересно нашёл такое дело древнее?piratbit.org



08-11-2014 17:47 Ильза: Свирепая тюремщица Скачать торрент  

XSTYLE писал(а):

[qpost=undefined]Где интересно нашёл такое дело древнее?

А чего его искать у меня такого древнего добра терабайт на 5 висит на внешних винтах. Когда то коллекционировал,(вспоминал по памяти то что смотрел в 80тые в видеосалонах) кстати много покупал, а потом при развитии нета стал скачивать, вот и осталось, теперь делюсь с народом.piratbit.org



08-11-2014 17:49 Ильза: Свирепая тюремщица Скачать торрент  

XSTYLE писал(а):

[qpost=undefined]Где интересно нашёл такое дело древнее?

Кстати есть еще древней, например порно 50-60х но это прада не вэтот раздел :)))) Есть много чего, времени мало, так бы было больше релизов, тем более еще раздаю не только у вас :)))))piratbit.org



09-11-2014 13:26 Ильза: Свирепая тюремщица Скачать торрент  

На предпоследнем скрине Джонни Депп посередине!:))piratbit.org



12-11-2014 16:28 Ильза: Свирепая тюремщица Скачать торрент  

leva1917 писал(а):

[qpost=undefined]На предпоследнем скрине Джонни Депп посередине!:))

А может это он дебютировал под другой фамилией :)))))piratbit.org



    Дорогой пользователь! Огромная просьба, поблагодарите релизера, оцените раздачу и оставьте свои комментарий, если Вы скачали Ильза: Свирепая тюремщица через торрент бесплатно! Внесите свою лепту в развитие PiratBit!
    Комментировать посты могут только пользователи прошедшие не сложную регистрацию
    Показать сообщения:    

    Ильза: Свирепая тюремщица через торрент
    Скачать бесплатно Ильза: Свирепая тюремщица
    Ильза: Свирепая тюремщица скачать торрент
    Ильза: Свирепая тюремщица смотреть онлайн
    Cкачать фильм Ильза: Свирепая тюремщица бесплатно
    Ильза: Свирепая тюремщица скачать торрент в хорошем качестве
    Ильза: Свирепая тюремщица смотреть онлайн бесплатно в хорошем качестве


    Вы не можете начинать темы
    Вы не можете отвечать на сообщения
    Вы не можете редактировать свои сообщения
    Вы не можете удалять свои сообщения
    Вы не можете голосовать в опросах
    Вы не можете прикреплять файлы к сообщениям
    Вы можете скачивать файлы