Доктор Стрэндж

Лицензия

Добыча

MVO

Дом дракона

1 сезон

Тор

Лицензия

Мэверик

Лицензия

Там, где раки поют

MVO

Властелин колец

1 сезон

Ultimate

pack

Рекомендуем

30

Repack

ВАЖНО

ВАЖНО

Ghostwire

RePack

jed

RePack

nioh2

RePack

RDR2

RePack

NEED FOR SPEED™ PAYBACK

RePack

скачать торрент

Кинопоиск HD

Острые козырьки 6 сезон

6 сезон

FAR CRY 6

RePack

скачать торрент

Лицензия

скачать торрент

MVO

1

1 сезон

скачать торрент

1 сезон

скачать торрент

Лицензия

  

Парад планет (Вадим Абдрашитов) [1984, СССР, фэнтези, драма, DVDRip)

Парад планет через торрент piratbit.org

Размер: 1.36 GB | Добавлен: 7 лет 10 мес. назад | Торрент скачан:90 раз
Смотреть онлайн Парад планет | Скачать   

09-11-2014 04:00 Парад планет Скачать торрент  

Парад планет


  • Год выпуска: 1984
  • Страна: СССР
  • Жанр: фэнтези, драма
  • Продолжительность: 01:31:10
  • Перевод: Не требуется

  • Режиссер: Вадим Абдрашитов
  • В ролях:

    Олег Борисов (Костин), Сергей Шакуров (Султан), Сергей Никоненко (Афонин), Александр Пашутин (Спиркин), Петр Зайченко (Пухов), Алексей Жарков (Слонов), Борис Романов (химик), Елена Майорова, Лилия Гриценко (мама), Марина Шиманская (подруга Афонина), Анжелика Неволина, Светлана Евстратова

  • Описание:
    События фильма начинаются в СССР приблизительно 1980-х годов и затем переносятся в иррациональное вымышленное время и пространство. Шестеро сорокалетних мужчин на неделю предоставлены самим себе, будучи вызваны на военные сборы. У каждого "все путем": работа, дом, семья. Каждый, когда функционировал, был по-своему свободен. А теперь им дали возможность просто жить. И оказалось, что эта абсолютная свобода уже не для них. Притча о выпадении из системы вышла в последний год периода застоя. "Мы просто отправились с нашими героями — сорокалетними мужчинами — в некое путешествие по собственной жизни через прошедшую молодость и будущую старость. "А что же впереди?"..
  • Рейтинг:



  • Качество: DVDRip
  • Формат: :AVI
  • Видео кодек: XviD
  • Аудио кодек: AC3
  • Видео: 704x512 (1.375), 1684 kbps, 25 fps, 0,187 bpp
  • Аудио: 5.1 / 48 kHz / 448 kbps / 16 bit
  • Релиз от: GEKADOL

    Код:

    Общее
    Полное имя                               : I:\Parad.Planet.1984.XviD.DVDRip.Kinozal.TV.avi
    Формат                                   : AVI
    Формат/Информация                        : Audio Video Interleave
    Размер файла                             : 1,36 Гбайт
    Продолжительность                        : 1 ч. 31 м.
    Общий поток                              : 2142 Кбит/сек
    Программа кодирования                    : VirtualDubMod 1.5.10.2 (build 2540/release)
    Библиотека кодирования                   : VirtualDubMod build 2540/release

    Видео
    Идентификатор                            : 0
    Формат                                   : MPEG-4 Visual
    Профиль формата                          : Advanced Simple@L5
    Параметр BVOP формата                    : 2
    Параметр QPel формата                    : Нет
    Параметр GMC формата                     : Без точки перехода
    Параметр матрицы формата                 : Default (MPEG)
    Режим смешивания                         : Сжатый битовый поток
    Идентификатор кодека                     : XVID
    Идентификатор кодека/Подсказка           : XviD
    Продолжительность                        : 1 ч. 31 м.
    Битрейт                                  : 1684 Кбит/сек
    Ширина                                   : 704 пикселя
    Высота                                   : 512 пикселей
    Соотношение сторон                       : 1,375
    Частота кадров                           : 25,000 кадров/сек
    Цветовое пространство                    : YUV
    Субдискретизация насыщенности            : 4:2:0
    Битовая глубина                          : 8 бит
    Тип развёртки                            : Прогрессивная
    Метод сжатия                             : С потерями
    Бит/(Пиксели*Кадры)                      : 0.187
    Размер потока                            : 1,07 Гбайт (79%)
    Библиотека кодирования                   : XviD 1.2.1 (UTC 2008-12-04)

    Аудио
    Идентификатор                            : 1
    Формат                                   : AC-3
    Формат/Информация                        : Audio Coding 3
    Расширение режима                        : CM (complete main)
    Параметр Endianness формата              : Big
    Идентификатор кодека                     : 2000
    Продолжительность                        : 1 ч. 31 м.
    Вид битрейта                             : Постоянный
    Битрейт                                  : 448 Кбит/сек
    Каналы                                   : 6 каналов
    Расположение каналов                     : Front: L C R, Side: L R, LFE
    Частота                                  : 48,0 КГц
    Битовая глубина                          : 16 бит
    Метод сжатия                             : С потерями
    Задержка видео                           : 355 мс.
    Размер потока                            : 292 Мбайт (21%)
    Выравнивание                             : Разделение по промежуткам
    Продолжительность промежутка             : 40  мс. (1,00 видеокадр)
    Время предзагрузки промежутка            : 500  мс.


    Скриншоты:






  • Скачать Парад планет через торрент http://i65.fastpic.ru/big/2014/1109/8e/aa2a4eb8345a93172fa2e3d40ed2318e.jpg Скачать, смотреть онлайн Парад планет бесплантно в хорошем качестве Описание: События фильма начинаются в СССР приблизительно 1980-х годов и затем переносятся в иррациональное вымышленное время и ... 9.9 10 7
    Торрент: Зарегистрирован [2014-11-09 04:00] · скачан: 90 раз
    Статус: √ проверено
    Размер: 1.36 GB
    Как cкачать? Как скачать Парад планет через торрент | UTorrent

    28-11-2019 20:33  

    Отключить вcю реклaмy на сайте

      Дорогой пользователь! Огромная просьба, поблагодарите релизера, оцените раздачу и оставьте свои комментарий, если Вы скачали Парад планет через торрент бесплатно!!
      Комментировать посты могут только пользователи прошедшие не сложную регистрацию
      Показать сообщения:    


      Парад планет через торрент
      Скачать бесплатно Парад планет
      Парад планет скачать торрент
      Парад планет смотреть онлайн
      Cкачать фильм Парад планет бесплатно
      Парад планет скачать торрент в хорошем качестве
      Парад планет смотреть онлайн бесплатно в хорошем качестве
      Вы не можете начинать темы
      Вы не можете отвечать на сообщения
      Вы не можете редактировать свои сообщения
      Вы не можете удалять свои сообщения
      Вы не можете голосовать в опросах
      Вы не можете прикреплять файлы к сообщениям
      Вы можете скачивать файлы