Доктор Стрэндж

Лицензия

Добыча

Дубляж

Дом дракона

1 сезон

Тор

Дубляж

В эфире

Дубляж

Там, где раки поют

MVO

Властелин колец

1 сезон

Ultimate

pack

Рекомендуем

30

Пиратка

ВАЖНО

ВАЖНО

Ghostwire

Пиратка

jed

RePack

nioh2

RePack

RDR2

RePack

NEED FOR SPEED™ PAYBACK

RePack

скачать торрент

Кинопоиск HD

Острые козырьки 6 сезон

6 сезон

FAR CRY 6

RePack

скачать торрент

Лицензия

скачать торрент

MVO

1

1 сезон

скачать торрент

1 сезон

скачать торрент

Лицензия

  

Белокурая невеста из Лунного Королевства / The White Haired Witch of Lunar Kingdom (Чжан Чжилиан / Zhang Zhiliang) [2014, Китай, фэнтези, боевик, мелодрама, исторический, BDRip 1080p] DVO (GREEN TEA) + Sub Eng, Chi + Original Chi

Белокурая невеста из Лунного Королевства через торрент piratbit.org

Размер: 8.34 GB | Добавлен: 8 лет назад | Торрент скачан:25 раз
Смотреть онлайн | Скачать   

10-11-2014 13:57 Белокурая невеста из Лунного Королевства Скачать торрент  

Белокурая невеста из Лунного Королевства / The White Haired Witch of Lunar Kingdom
Год выпуска: 2014
Страна: Китай
Жанр: фэнтези, боевик, мелодрама, исторический
Продолжительность: 01:43:47
Перевод: Любительский (двухголосый закадровый) GREEN TEA
Субтитры: английские, китайские (srt)

Режиссер: Чжан Чжилиан / Zhang Zhiliang




В ролях: Бинбин Фань, Сяо Мин Хуан, Вэньчжо Чжао, Хуан Цзяньсинь, Юйшэн Лян

Описание: В центре событий — мстительница, которая наказывает людей во имя Луны за чинимые ими преступления и несправедливости, история о боевых искусствах, мести, любви, чести и романтике.

Доп. информация:
Перевод: Виктория Широкова
Озвучивание: Ольга Гринтиева и Дмитрий Познанский

Качество: BDRip 1080p
Формат: MKV
Видео кодек: AVC
Аудио кодек: AC3
Видео: 1920 х 804 / 23.976 fps / 16:9 / High Profile 4.1
Аудио#1: Russian / 2.0 / 48 kHz / 192 kbps
Аудио#2: Chinese / 5.1 / 48 kHz / 640 kbps - Mandarin
Аудио#3: Chinese / 5.1 / 48 kHz / 640 kbps - Cantonese
Релиз
General
Unique ID : 179361358768973845387814682994992530679 (0x86EFBDBD714F25B1A14506586860C4F7)
Complete name : F:\Белокурая невеста из Лунного Королевства\The.White.Haired.Witch.of.Lunar.Kingdom.2014.1080p.BluRay.x264-WiKi.mkv
Format : Matroska
Format version : Version 4 / Version 2
File size : 8.34 GiB
Duration : 1h 43mn
Overall bit rate : 11.5 Mbps
Movie name : The White Haired Witch of Lunar Kingdom 2014 1080p
Encoded date : UTC 2014-10-27 17:56:19
Writing application : mkvmerge v6.8.0 ('Theme for Great Cities') 64bit built on Mar 2 2014 21:34:26
Writing library : libebml v1.3.0 + libmatroska v1.4.1

Video
ID : 1
Format : AVC
Format/Info : Advanced Video Codec
Format profile : High@L4.1
Format settings, CABAC : Yes
Format settings, ReFrames : 5 frames
Codec ID : V_MPEG4/ISO/AVC
Duration : 1h 43mn
Bit rate : 10.0 Mbps
Width : 1 920 pixels
Height : 804 pixels
Display aspect ratio : 2.40:1
Frame rate mode : Constant
Frame rate : 23.976 fps
Color space : YUV
Chroma subsampling : 4:2:0
Bit depth : 8 bits
Scan type : Progressive
Bits/(Pixel*Frame) : 0.271
Stream size : 7.11 GiB (85%)
Title : RG Orient Extreme Films
Writing library : x264 core 129 r2245+704+36 8e61944 tMod+MixAQ [8-bit@4:2:0 X86_64]
Encoding settings : cabac=1 / ref=5 / deblock=1:-3:-3 / analyse=0x3:0x133 / me=umh / subme=11 / psy=1 / fade_compensate=0.00 / psy_rd=1.05:0.10 / mixed_ref=1 / me_range=64 / chroma_me=1 / trellis=2 / 8x8dct=1 / cqm=0 / deadzone=21,11 / fast_pskip=0 / chroma_qp_offset=-3 / threads=18 / lookahead_threads=3 / sliced_threads=0 / nr=0 / decimate=0 / interlaced=0 / bluray_compat=0 / constrained_intra=0 / fgo=0 / bframes=10 / b_pyramid=2 / b_adapt=2 / b_bias=0 / direct=3 / weightb=1 / open_gop=0 / weightp=2 / keyint=250 / keyint_min=23 / scenecut=40 / intra_refresh=0 / rc_lookahead=80 / rc=2pass / mbtree=1 / bitrate=10030 / ratetol=1.0 / qcomp=0.75 / qpmin=0 / qpmax=69 / qpstep=4 / cplxblur=20.0 / qblur=0.5 / ip_ratio=1.40 / aq=3 / aq-strength=0.80 / aq-sensitivity=10.00 / aq-ifactor=1.00 / aq-pfactor=1.00 / aq-bfactor=1.00 / aq2=0
Language : Chinese
Default : Yes
Forced : No
Matrix coefficients : BT.709

Audio #1
ID : 2
Format : AC-3
Format/Info : Audio Coding 3
Mode extension : CM (complete main)
Format settings, Endianness : Big
Codec ID : A_AC3
Duration : 1h 43mn
Bit rate mode : Constant
Bit rate : 192 Kbps
Channel(s) : 2 channels
Channel positions : Front: L R
Sampling rate : 48.0 KHz
Bit depth : 16 bits
Compression mode : Lossy
Stream size : 143 MiB (2%)
Title : DVO (GREEN TEA) AC3 2.0 @ 192k
Language : Russian
Default : Yes
Forced : No

Audio #2
ID : 3
Format : AC-3
Format/Info : Audio Coding 3
Mode extension : CM (complete main)
Format settings, Endianness : Big
Codec ID : A_AC3
Duration : 1h 43mn
Bit rate mode : Constant
Bit rate : 640 Kbps
Channel(s) : 6 channels
Channel positions : Front: L C R, Side: L R, LFE
Sampling rate : 48.0 KHz
Bit depth : 16 bits
Compression mode : Lossy
Stream size : 475 MiB (6%)
Title : Mandarin AC3 5.1 @ 640k
Language : Chinese
Default : No
Forced : No

Audio #3
ID : 4
Format : AC-3
Format/Info : Audio Coding 3
Mode extension : CM (complete main)
Format settings, Endianness : Big
Codec ID : A_AC3
Duration : 1h 43mn
Bit rate mode : Constant
Bit rate : 640 Kbps
Channel(s) : 6 channels
Channel positions : Front: L C R, Side: L R, LFE
Sampling rate : 48.0 KHz
Bit depth : 16 bits
Compression mode : Lossy
Stream size : 475 MiB (6%)
Title : Cantonese AC3 5.1 @ 640k
Language : Chinese
Default : No
Forced : No

Text #1
ID : 5
Format : UTF-8
Codec ID : S_TEXT/UTF8
Codec ID/Info : UTF-8 Plain Text
Language : English
Default : No
Forced : No

Text #2
ID : 6
Format : UTF-8
Codec ID : S_TEXT/UTF8
Codec ID/Info : UTF-8 Plain Text
Title : Simplified
Language : Chinese
Default : No
Forced : No

Text #3
ID : 7
Format : UTF-8
Codec ID : S_TEXT/UTF8
Codec ID/Info : UTF-8 Plain Text
Title : Traditional
Language : Chinese
Default : No
Forced : No

Menu
00:00:00.000 : en:00:00:00.000
00:06:04.655 : en:00:06:04.655
00:10:38.971 : en:00:10:38.971
00:14:54.602 : en:00:14:54.602
00:19:04.143 : en:00:19:04.143
00:23:51.513 : en:00:23:51.513
00:28:30.875 : en:00:28:30.875
00:33:19.622 : en:00:33:19.622
00:39:06.802 : en:00:39:06.802
00:44:54.400 : en:00:44:54.400
00:53:07.100 : en:00:53:07.100
01:00:14.027 : en:01:00:14.027
01:06:05.878 : en:01:06:05.878
01:12:06.572 : en:01:12:06.572
01:17:44.785 : en:01:17:44.785
01:24:26.478 : en:01:24:26.478
01:28:31.389 : en:01:28:31.389
01:32:54.902 : en:01:32:54.902
01:36:35.998 : en:01:36:35.998
01:39:40.140 : en:01:39:40.140


Белокурая невеста из Лунного Королевства скачать торрент





Скачать Белокурая невеста из Лунного Королевства через торрент https://pic1.kartinco.top/images/81/dquml.jpg Скачать, смотреть онлайн Белокурая невеста из Лунного Королевства бесплантно в хорошем качестве Описание: В центре событий — мстительница, которая наказывает людей во имя Луны за чинимые ими преступления и несправедливости, история о ... 10 10 5
Info! Золотая раздача, скачанное не засчитывается.
Торрент: Зарегистрирован [2014-11-10 13:57] · скачан: 25 раз
Статус: √ проверено
Размер: 8.34 GB
Как cкачать? Как скачать Белокурая невеста из Лунного Королевства через торрент | UTorrent

28-11-2019 20:33  


Отключить вcю реклaмy на сайте, в т.ч. и в плеере онлайн просмотра!

    Дорогой пользователь! Огромная просьба, поблагодарите релизера, оцените раздачу и оставьте свои комментарий, если Вы скачали Белокурая невеста из Лунного Королевства через торрент бесплатно!!
    Комментировать посты могут только пользователи прошедшие не сложную регистрацию
    Показать сообщения:    


    Белокурая невеста из Лунного Королевства через торрент
    Скачать бесплатно Белокурая невеста из Лунного Королевства
    Белокурая невеста из Лунного Королевства скачать торрент
    Белокурая невеста из Лунного Королевства смотреть онлайн
    Cкачать фильм Белокурая невеста из Лунного Королевства бесплатно
    Белокурая невеста из Лунного Королевства скачать торрент в хорошем качестве
    Белокурая невеста из Лунного Королевства смотреть онлайн бесплатно в хорошем качестве
    Вы не можете начинать темы
    Вы не можете отвечать на сообщения
    Вы не можете редактировать свои сообщения
    Вы не можете удалять свои сообщения
    Вы не можете голосовать в опросах
    Вы не можете прикреплять файлы к сообщениям
    Вы можете скачивать файлы
    Белокурая невеста из Лунного Королевства / The White Haired Witch of Lunar Kingdom [2014, Китай, фэнтези, боевик, мелодрама, исторический, BDRip 1080p] DVO + Sub Eng, Chi + Original Chi смотреть онлайн, скачать торрент picoco.icu