Доктор Стрэндж

Лицензия

Добыча

Дубляж

Уэнсдэй

1 сезон

Тор

Дубляж

В эфире

Дубляж

Там, где раки поют

MVO

Властелин колец

1 сезон

Deluxe

pack

Рекомендуем

30

Пиратка

ВАЖНО

ВАЖНО

Ghostwire

Пиратка

jed

RePack

nioh2

RePack

RDR2

RePack

NEED FOR SPEED™ PAYBACK

RePack

скачать торрент

Кинопоиск HD

Острые козырьки 6 сезон

6 сезон

FAR CRY 6

RePack

скачать торрент

Лицензия

скачать торрент

MVO

1

1 сезон

скачать торрент

1 сезон

скачать торрент

Лицензия

  

Дископат / Discopathe (Джордан Рубин) [2013, ужасы, триллер, криминал, BDRip 1080p] MVO

Дископат через торрент piratbit.org

Размер: 5.72 GB | Добавлен: 8 лет назад | Торрент скачан:38 раз
Смотреть онлайн | Скачать   

10-11-2014 15:29 Дископат Скачать торрент  

Название: Дископат

Оригинальное название: Discopathe

Год выпуска: 2013

Выпущено: Канада

Продолжительность: 01:20:57

Озвучивание: Любительское (многоголосое) [Александр Харченко, DeadSno & den904]
по переводу [Антонио]

Субтитры: Russian [Антонио], English

Жанр: ужасы, триллер, криминал

Режиссер: Джордан Рубин

В ролях: Кэтерин Антаки, Франсуа Обен, Сандрин Биссон, Нэнси Блэ, Кэтерин Кастелуччи, Кэтерин Клилэнд, Иван Фройд

Описание:

Середина 70-х годов прошлого века. Застенчивый молодой человек, житель Нью-Йорка, ведёт ничем не примечательную жизнь, пока его роковым образом не настигают ритмы музыки нового жанра - диско. Не в силах сдерживать смертоубийственные порывы, в основе которых лежит давняя детская травма, Дуэйн Луис превращается в опасного серийного убийцу и бежит в Монреаль...



Файл
Качество: BDRip 1080p [STRATOS]

Формат: MKV

Видео кодек: AVC

Аудио кодек:DTS, AC3

Видео: 8149 kb/s, 1920x808, 23,976 fps

Аудио: Russian: AC3, 448 kb/s (6 ch) / 48 kHz

Аудио: English: DTS, 1510 kb/s (6 ch) / 48 kHz

Дополнительно: Сохранены оригинальные чаптеры как на Blu-Ray

------------

Скачать: Сэмпл

------------
General
Discopath.2013.Blu.Ray.1080p.CINEMANIA.mkv
Format : Matroska
Format version : Version 4 / Version 2
File size : 5.72 GiB
Duration : 1h 20mn
Overall bit rate : 10.1 Mbps
Movie name : Release Group CINEMANIA
Encoded date : UTC 2014-11-04 20:40:23
Writing application : mkvmerge v7.3.0 ('Nouages') 64bit built on Oct 22 2014 18:53:34
Writing library : libebml v1.3.0 + libmatroska v1.4.1

Video
ID : 1
Format : AVC
Format/Info : Advanced Video Codec
Format profile : High@L4.1
Format settings, CABAC : Yes
Format settings, ReFrames : 5 frames
Codec ID : V_MPEG4/ISO/AVC
Duration : 1h 20mn
Bit rate : 8 149 Kbps
Width : 1 920 pixels
Height : 808 pixels
Display aspect ratio : 2.40:1
Frame rate mode : Constant
Frame rate : 23.976 fps
Color space : YUV
Chroma subsampling : 4:2:0
Bit depth : 8 bits
Scan type : Progressive
Bits/(Pixel*Frame) : 0.219
Stream size : 4.50 GiB (79%)
Title : Release Group CINEMANIA
Writing library : x264 core 142 r2479 dd79a61
Encoding settings : cabac=1 / ref=5 / deblock=1:0:0 / analyse=0x3:0x113 / me=umh / subme=7 / psy=1 / psy_rd=1.00:0.00 / mixed_ref=1 / me_range=16 / chroma_me=1 / trellis=1 / 8x8dct=1 / cqm=0 / deadzone=21,11 / fast_pskip=0 / chroma_qp_offset=-2 / threads=12 / lookahead_threads=2 / sliced_threads=0 / nr=0 / decimate=1 / interlaced=0 / bluray_compat=0 / constrained_intra=0 / bframes=3 / b_pyramid=2 / b_adapt=2 / b_bias=0 / direct=3 / weightb=1 / open_gop=0 / weightp=2 / keyint=250 / keyint_min=23 / scenecut=40 / intra_refresh=0 / rc_lookahead=50 / rc=2pass / mbtree=1 / bitrate=8149 / ratetol=1.0 / qcomp=0.60 / qpmin=0 / qpmax=69 / qpstep=4 / cplxblur=20.0 / qblur=0.5 / ip_ratio=1.40 / aq=1:1.00
Default : Yes
Forced : No

Audio #1
ID : 2
Format : AC-3
Format/Info : Audio Coding 3
Mode extension : CM (complete main)
Format settings, Endianness : Big
Codec ID : A_AC3
Duration : 1h 20mn
Bit rate mode : Constant
Bit rate : 448 Kbps
Channel(s) : 6 channels
Channel positions : Front: L C R, Side: L R, LFE
Sampling rate : 48.0 KHz
Bit depth : 16 bits
Compression mode : Lossy
Stream size : 259 MiB (4%)
Title : Александр Харченко, DeadSno & den904
Language : Russian
Default : Yes
Forced : Yes

Audio #2
ID : 3
Format : DTS
Format/Info : Digital Theater Systems
Mode : 16
Format settings, Endianness : Big
Codec ID : A_DTS
Duration : 1h 20mn
Bit rate mode : Constant
Bit rate : 1 509 Kbps
Channel(s) : 6 channels
Channel positions : Front: L C R, Side: L R, LFE
Sampling rate : 48.0 KHz
Bit depth : 24 bits
Compression mode : Lossy
Stream size : 874 MiB (15%)
Title : English/French
Language : English
Default : No
Forced : No

Text #2
ID : 5
Format : UTF-8
Codec ID : S_TEXT/UTF8
Codec ID/Info : UTF-8 Plain Text
Title : Антонио
Language : Russian
Default : No
Forced : No

Text #3
ID : 6
Format : UTF-8
Codec ID : S_TEXT/UTF8
Codec ID/Info : UTF-8 Plain Text
Language : English
Default : No
Forced : No

Menu
00:00:00.000 : en:00:00:00.000
00:07:03.882 : en:00:07:03.882
00:14:31.954 : en:00:14:31.954
00:19:09.732 : en:00:19:09.732
00:25:31.530 : en:00:25:31.530
00:30:58.482 : en:00:30:58.482
00:36:07.874 : en:00:36:07.874
00:40:59.499 : en:00:40:59.499
00:47:25.384 : en:00:47:25.384
00:53:06.683 : en:00:53:06.683
00:57:52.177 : en:00:57:52.177
01:05:03.316 : en:01:05:03.316
01:13:41.167 : en:01:13:41.167
------------

Релиз группы:



Скачать Дископат через торрент http://i63.fastpic.ru/big/2014/1110/f3/c079818652d4ef3bdf26a9f1b5232df3.jpg Скачать, смотреть онлайн Дископат бесплантно в хорошем качестве Описание: Середина 70-х годов прошлого века. Застенчивый молодой человек, житель Нью-Йорка, ведёт ничем не примечательную жизнь, пока его ... 5.5 10 2
Торрент: Зарегистрирован [2014-11-10 15:29] · скачан: 38 раз
Статус: T временная
Размер: 5.72 GB
Как cкачать? Как скачать Дископат через торрент | UTorrent

28-11-2019 20:33  


Отключить вcю реклaмy на сайте, в т.ч. и в плеере онлайн просмотра!

    Дорогой пользователь! Огромная просьба, поблагодарите релизера, оцените раздачу и оставьте свои комментарий, если Вы скачали Дископат через торрент бесплатно!!
    Комментировать посты могут только пользователи прошедшие не сложную регистрацию
    Показать сообщения:    


    Дископат через торрент
    Скачать бесплатно Дископат
    Дископат скачать торрент
    Дископат смотреть онлайн
    Cкачать фильм Дископат бесплатно
    Дископат скачать торрент в хорошем качестве
    Дископат смотреть онлайн бесплатно в хорошем качестве
    Вы не можете начинать темы
    Вы не можете отвечать на сообщения
    Вы не можете редактировать свои сообщения
    Вы не можете удалять свои сообщения
    Вы не можете голосовать в опросах
    Вы не можете прикреплять файлы к сообщениям
    Вы можете скачивать файлы
    Дископат / Discopathe [2013, ужасы, триллер, криминал, BDRip 1080p] MVO смотреть онлайн, скачать торрент picoco.icu