Доктор Стрэндж

Лицензия

Добыча

Дубляж

Уэнсдэй

1 сезон

Тор

Дубляж

В эфире

Дубляж

Там, где раки поют

MVO

Властелин колец

1 сезон

Deluxe

pack

Рекомендуем

30

Пиратка

ВАЖНО

ВАЖНО

Ghostwire

Пиратка

jed

RePack

nioh2

RePack

RDR2

RePack

NEED FOR SPEED™ PAYBACK

RePack

скачать торрент

Кинопоиск HD

Острые козырьки 6 сезон

6 сезон

FAR CRY 6

RePack

скачать торрент

Лицензия

скачать торрент

MVO

1

1 сезон

скачать торрент

1 сезон

скачать торрент

Лицензия

  

Джинн / Jinn (Аджмал Захир Ахмад / Ajmal Zaheer Ahmad) [2014, США, триллер, BDRip 720p, Любительский (одноголосый)]

Джинн через торрент piratbit.org

Размер: 2.94 GB | Добавлен: 8 лет назад | Торрент скачан:101 раз
Смотреть онлайн | Скачать   

10-11-2014 23:28 Джинн Скачать торрент  

Джинн / Jinn

Год выпуска: 2014
Страна: США
Жанр: триллер
Продолжительность: 01:37:11
Перевод: Любительский (одноголосый)[Васька Куролесов]
Субтитры: Английские
Режиссер: Аджмал Захир Ахмад / Ajmal Zaheer Ahmad
В ролях:


Серинда Свон (Jasmine), Рэй Парк (Gabriel), Уильям Этертон (Father Westhoff), Сибулла Дин (Beautiful Girl), Фаран Таир (Ali), Амин Наземзадех (Shawn), Миа Гович (Mrs. Walker), Эмбер Вилан (Shawn's Mother), Уолтер Фелан (The Jinn), Дэнни Муни (Head Guard of the Asylum), Шон Пол Пичинино (Bobby - Asylum Attendant), Эли Бардха (Coulter)

Описание:
Шон - автомобильный дизайнер, наслаждается идиллической жизнью со своей женой Жасмин. Но однажды он получает загадочное сообщение, которое предупреждает его о надвигающейся опасности и о проклятье, которое преследует его семью из поколения в поколение...

Рейтинг:

MPAA: PG-13 - Детям до 13 лет просмотр не желателен
Качество: BDRip 720p
Формат: MKV
Видео кодек:AVC
Аудио кодек:AC3, DTS
Видео: AVC, 1280x536 (2.40:1), 3236 kbps, 24 fps, 0,197 bpp
Аудио №1: русский / AC3 / 2.0 / 48 kHz / 256 kbps / 16 bit
Аудио №2: английский / DTS / 5.1 / 48 kHz / 755 kbps / 16 bit


General
Unique ID : 219336742783418896663600208292795577344 (0xA502B8575D9E50B587F2B924D14EF400)
Complete name : D:\Users\_KaisiK_\uTorrent\КИНО\Jinn.2014.Blu.Ray.720p.CINEMANIA.mkv
Format : Matroska
Format version : Version 4 / Version 2
File size : 2.94 GiB
Duration : 1h 37mn
Overall bit rate : 4 334 Kbps
Movie name : Release Group CINEMANIA
Encoded date : UTC 2014-11-06 10:58:56
Writing application : mkvmerge v7.3.0 ('Nouages') 64bit built on Oct 22 2014 18:53:34
Writing library : libebml v1.3.0 + libmatroska v1.4.1

Video
ID : 1
Format : AVC
Format/Info : Advanced Video Codec
Format profile : High@L4.1
Format settings, CABAC : Yes
Format settings, ReFrames : 5 frames
Codec ID : V_MPEG4/ISO/AVC
Duration : 1h 37mn
Bit rate : 3 237 Kbps
Width : 1 280 pixels
Height : 536 pixels
Display aspect ratio : 2.40:1
Frame rate : 24.000 fps
Color space : YUV
Chroma subsampling : 4:2:0
Bit depth : 8 bits
Scan type : Progressive
Bits/(Pixel*Frame) : 0.197
Stream size : 2.20 GiB (75%)
Title : Release Group CINEMANIA
Writing library : x264 core 142 r2431 ac76440
Encoding settings : cabac=1 / ref=5 / deblock=1:-3:-3 / analyse=0x3:0x113 / me=umh / subme=7 / psy=1 / psy_rd=1.00:0.00 / mixed_ref=1 / me_range=16 / chroma_me=1 / trellis=1 / 8x8dct=1 / cqm=0 / deadzone=21,11 / fast_pskip=0 / chroma_qp_offset=-2 / threads=12 / lookahead_threads=3 / sliced_threads=0 / nr=0 / decimate=1 / interlaced=0 / bluray_compat=0 / constrained_intra=0 / bframes=5 / b_pyramid=2 / b_adapt=2 / b_bias=0 / direct=3 / weightb=1 / open_gop=0 / weightp=2 / keyint=240 / keyint_min=24 / scenecut=40 / intra_refresh=0 / rc_lookahead=40 / rc=crf / mbtree=1 / crf=16.1 / qcomp=0.60 / qpmin=0 / qpmax=69 / qpstep=4 / ip_ratio=1.40 / aq=1:1.00
Default : Yes
Forced : No

Audio #1
ID : 2
Format : AC-3
Format/Info : Audio Coding 3
Mode extension : CM (complete main)
Codec ID : A_AC3
Duration : 1h 37mn
Bit rate mode : Constant
Bit rate : 256 Kbps
Channel(s) : 2 channels
Channel positions : Front: L R
Sampling rate : 48.0 KHz
Bit depth : 16 bits
Compression mode : Lossy
Stream size : 178 MiB (6%)
Title : Васька Куролесов
Language : Russian
Default : Yes
Forced : Yes

Audio #2
ID : 3
Format : DTS
Format/Info : Digital Theater Systems
Codec ID : A_DTS
Duration : 1h 37mn
Bit rate mode : Constant
Bit rate : 755 Kbps
Channel(s) : 6 channels
Channel positions : Front: L C R, Side: L R, LFE
Sampling rate : 48.0 KHz
Bit depth : 16 bits
Compression mode : Lossy
Stream size : 525 MiB (17%)
Language : English
Default : No
Forced : No

Text #1
ID : 4
Format : UTF-8
Codec ID : S_TEXT/UTF8
Codec ID/Info : UTF-8 Plain Text
Language : Russian
Default : Yes
Forced : Yes

Text #2
ID : 5
Format : UTF-8
Codec ID : S_TEXT/UTF8
Codec ID/Info : UTF-8 Plain Text
Language : English
Default : No
Forced : No

[/code]



Скачать Джинн через торрент http://i68.fastpic.ru/big/2014/1111/30/c8eec54166bb1ff9424d04bac48cb430.png Скачать, смотреть онлайн Джинн бесплантно в хорошем качестве Описание: Шон - автомобильный дизайнер, наслаждается идиллической жизнью со своей женой Жасмин. Но однажды он получает загадочное ... 10 10 3
Торрент: Зарегистрирован [2014-11-10 23:28] · скачан: 101 раз
Статус: √ проверено
Размер: 2.94 GB
Как cкачать? Как скачать Джинн через торрент | UTorrent

28-11-2019 20:33  


Отключить вcю реклaмy на сайте, в т.ч. и в плеере онлайн просмотра!

    Дорогой пользователь! Огромная просьба, поблагодарите релизера, оцените раздачу и оставьте свои комментарий, если Вы скачали Джинн через торрент бесплатно!!
    Комментировать посты могут только пользователи прошедшие не сложную регистрацию
    Показать сообщения:    


    Джинн через торрент
    Скачать бесплатно Джинн
    Джинн скачать торрент
    Джинн смотреть онлайн
    Cкачать фильм Джинн бесплатно
    Джинн скачать торрент в хорошем качестве
    Джинн смотреть онлайн бесплатно в хорошем качестве
    Вы не можете начинать темы
    Вы не можете отвечать на сообщения
    Вы не можете редактировать свои сообщения
    Вы не можете удалять свои сообщения
    Вы не можете голосовать в опросах
    Вы не можете прикреплять файлы к сообщениям
    Вы можете скачивать файлы
    Джинн / Jinn [2014, США, триллер, BDRip 720p, Любительский ] смотреть онлайн, скачать торрент picoco.icu