Ссылка на приватное зеркало нашего сайта всего за 1$. Внимание количество ограничено!!!

2 сезон

iTunes

1 сезон

1

iTunes

iTunes

iTunes

1 сезон

RePack

30

ИГРА 18+

pack

ВАЖНО

!!Акция!!

Alien_RageХит недели

RePack

MK11
pack

Забери бонус

RePack

jed

!!Акция!!

Alien_Rage

RePack

fifa19

RePack

Assassins Creed: Odyssey

RePack

NEED FOR SPEED™ PAYBACK

4 сезон

9 сезон

Бесстыжие 9 сезон

Все сериалы

все сериалы на PB.wtf

RePack

FAR CRY 5
  

Отверженные / Les Miserables (Жозе Дайян / Josee Dayan) [2000 г., Драма, приключения, DVDRip]MVO (ЕА-Синема) + original + sub(rus) piratbit.org

Отверженные через торрент piratbit.org

Размер: 5.86 GB | Добавлен: 5 лет 11 мес. назад | Торрент скачан:11 раз
Скачать  

12-11-2014 08:46 Отверженные Скачать торрент  

Отверженные / Les Miserables
Год выпуска: 2000
Страна: Германия, США, Франция, Италия, Испания
Жанр: Драма, приключения
Продолжительность: (01:28:14, 01:31:06, 01:32:03, 01:26:53) 4 серии
Перевод: Профессиональный многоголосый
Субтитры: русские

Режиссер: Жозе Дайян / Josee Dayan



В ролях: Жерар Депардье, Кристиан Клавье, Джон Малкович, Вирджиния Ледуайен, Энрико Ло Версо, Шарлотта Генсбур, Азия Ардженто, Вероника Феррес, Жанна Моро, Джованна Меццоджорно

Описание: Франция, ХIX век. Жан Вальжан, освободившись после 20 лет каторги, куда был отправлен за кражу булки хлеба, поклялся вести честную жизнь. Но инспектор полиции Жавер убежден, что преступник всегда останется преступником, и место Вальжану в тюрьме. До скончания века. Несмотря ни на что, Вальжан становится удачливым промышленником и мэром провинциального города. Но неправедное правосудие вновь настигает его. Вместе с приемной дочерью Козеттой Вальжан бежит в Париж. Но и там ему приходится продолжить борьбу со своим неумолимым преследователем…

Качество: DVDRip
Формат: AVI
Видео кодек: XviD
Аудио кодек: AC3
Видео: 672x400 (1.68:1), 25 fps, ~1463 kbps avg, 0.22 bit/pixel
Аудио#1: RU 48 kHz,Dolby Digital, 3/2 (L,C,R,l,r) + LFE ch, ~448.00 kbps avg (ЕА-Синема)
Аудио#2: FRE 48 kHz, Dolby Digital, 3/2 (L,C,R,l,r) + LFE ch, ~448.00 kbps avg
General
Complete name : F:\Отверженные Les Miserables\otverzhennye_4x1.46part1.avi
Format : AVI
Format/Info : Audio Video Interleave
File size : 1.46 GiB
Duration : 1h 28mn
Overall bit rate : 2 375 Kbps
Director : bm11
Writing application : VirtualDubMod 1.5.10.2 (build 2540/release)

Video
ID : 0
Format : MPEG-4 Visual
Format profile : Advanced Simple@L5
Format settings, BVOP : 2
Format settings, QPel : No
Format settings, GMC : No warppoints
Format settings, Matrix : Custom
Codec ID : XVID
Codec ID/Hint : XviD
Duration : 1h 28mn
Bit rate : 1 465 Kbps
Width : 672 pixels
Height : 400 pixels
Display aspect ratio : 1.680
Frame rate : 25.000 fps
Color space : YUV
Chroma subsampling : 4:2:0
Bit depth : 8 bits
Scan type : Progressive
Compression mode : Lossy
Bits/(Pixel*Frame) : 0.218
Stream size : 924 MiB (62%)
Writing library : XviD 65

Audio #1
ID : 1
Format : AC-3
Format/Info : Audio Coding 3
Mode extension : CM (complete main)
Format settings, Endianness : Big
Codec ID : 2000
Duration : 1h 28mn
Bit rate mode : Constant
Bit rate : 448 Kbps
Channel(s) : 6 channels
Channel positions : Front: L C R, Side: L R, LFE
Sampling rate : 48.0 KHz
Bit depth : 16 bits
Compression mode : Lossy
Stream size : 283 MiB (19%)
Alignment : Split accross interleaves
Interleave, duration : 40 ms (1.00 video frame)
Interleave, preload duration : 500 ms

Audio #2
ID : 2
Format : AC-3
Format/Info : Audio Coding 3
Mode extension : CM (complete main)
Format settings, Endianness : Big
Codec ID : 2000
Duration : 1h 28mn
Bit rate mode : Constant
Bit rate : 448 Kbps
Channel(s) : 6 channels
Channel positions : Front: L C R, Side: L R, LFE
Sampling rate : 48.0 KHz
Bit depth : 16 bits
Compression mode : Lossy
Stream size : 283 MiB (19%)
Alignment : Split accross interleaves
Interleave, duration : 40 ms (1.00 video frame)
Interleave, preload duration : 500 ms


Отверженные скачать торрент


piratbit.org



Скачать Отверженные через торрент http://pic.kartinco.top/images/8/baxp6.jpg Скачать фильм Отверженные через торрент бесплантно в хорошем качестве Описание: Франция, ХIX век. Жан Вальжан, освободившись после 20 лет каторги, куда был отправлен за кражу булки хлеба, поклялся вести ... 10 10 2
Info! Золотая раздача, скачанное не засчитывается.
Торрент: Зарегистрирован [2014-11-12 08:48] · скачан: 11 раз
Статус: √ проверено
Размер: 5.86 GB
Как cкачать? Как скачать Отверженные через торрент | qTorrent

% Раздел Тема Автор DL S | L
Зарубежные сериалы [ 13.98 GB ] Отверженные / Les Miserables / Сезон: 1 / Серии: 1-6 из 6 [2019 история HDTVRip 1080p] MVO [TVShows] bober100 Скачать
1 | 0
Зарубежные сериалы [ 24.35 GB ] Отверженные / Les Misérables / Les Miserables / Сезон: 1 / Серии: 1-6 из 6 [2018-2019 история WEB-DL 1080p] MVO [LostFilm] bober100 Скачать
1 | 0
Классика зарубежного кино [ 7.88 GB ] Отверженные / Les Miserables [1995 военный DVD9] Dub + MVO + Original Fre Assasinca Скачать
1 | 1
Фильмы 2012 [ 1.37 GB ] Отверженные / Les Miserables [2012 мюзикл HDRip ] DUB [ лицензия ] Ворон Скачать
1 | 0
Фильмы [HD 720p, 1080p] (Хороший звук DUB, MVO) [ 9.87 GB ] Отверженные / Les Miserables [2012 мюзикл BDRip 720p + Оригинал] Ворон Скачать
1 | 0
Фильмы 2012 [ 2.06 GB ] Отверженные / Les Miserables [2012 мюзикл HDRip ] DUB [ лицензия ] Ворон Скачать
1 | 0
Фильмы [HD 720p, 1080p] (Хороший звук DUB, MVO) [ 4.99 GB ] Отверженные / Les Miserables [2012 мюзикл BDRip 720p лицензия] Sудья Скачать
1 | 0

28-11-2019 20:33  

Отключить всю рекламу на сайте

    Дорогой пользователь! Огромная просьба, поблагодарите релизера, оцените раздачу и оставьте свои комментарий, если Вы скачали Отверженные через торрент бесплатно! Внесите свою лепту в развитие PiratBit!
    Комментировать посты могут только пользователи прошедшие не сложную регистрацию
    Показать сообщения:    

    Отверженные через торрент
    Скачать бесплатно Отверженные
    Отверженные скачать торрент
    Отверженные смотреть онлайн
    Cкачать фильм Отверженные бесплатно
    Отверженные скачать торрент в хорошем качестве
    Отверженные смотреть онлайн бесплатно в хорошем качестве


    Вы не можете начинать темы
    Вы не можете отвечать на сообщения
    Вы не можете редактировать свои сообщения
    Вы не можете удалять свои сообщения
    Вы не можете голосовать в опросах
    Вы не можете прикреплять файлы к сообщениям
    Вы можете скачивать файлы