Доктор Стрэндж

Лицензия

Добыча

Дубляж

Уэнсдэй

1 сезон

Тор

Дубляж

В эфире

Дубляж

Там, где раки поют

MVO

Властелин колец

1 сезон

Deluxe

pack

Рекомендуем

30

Пиратка

ВАЖНО

ВАЖНО

Ghostwire

Пиратка

jed

RePack

nioh2

RePack

RDR2

RePack

NEED FOR SPEED™ PAYBACK

RePack

скачать торрент

Кинопоиск HD

Острые козырьки 6 сезон

6 сезон

FAR CRY 6

RePack

скачать торрент

Лицензия

скачать торрент

MVO

1

1 сезон

скачать торрент

1 сезон

скачать торрент

Лицензия

  

Винсент хочет к морю / Vincent will meer (Ральф Хюттнер) [2010, драма, BDRip 720p] DVO (любительский)

Винсент хочет к морю через торрент piratbit.org

Размер: 3.66 GB | Добавлен: 8 лет назад | Торрент скачан:18 раз
Смотреть онлайн | Скачать   

13-11-2014 14:23 Винсент хочет к морю Скачать торрент  

Винсент хочет к морю / Vincent will meer

Год выпуска: 2010
Страна: Германия
Жанр: драма
Продолжительность: 01:34:25
Перевод: любительский двухголосый
Субтитры: русские

Режиссёр: Ральф Хюттнер

В ролях: Флориан Давид Фитц, Каролине Херфурт, Хайно Ферх, Катарина Мюллер-Элмау, Йоханнес Алльмайер, Карин Талер, Тим Сейфи

Описание: Последнее желание матери Винсента, страдающего синдромом Туретта, ещё раз увидеть море. И Винсент хочет выполнить это желание. Но после смерти матери отец Винсента, политик, у которого нет ни времени, ни желания возиться с больным сыном, отвозит его в специальную клинику. Там Винсент знакомится с булемичкой Мари и невротиком Александром. После конфликта с доктором Мари крадёт ключи от её машины и предлагает Винсенту бежать вместе с ней из клиники. Волей случая, к ним присоединяется Александр. Втроём они едут в Италию, к морю…



Качество: BDRip 720p Сравнение с исходником
Формат: MKV
Видео кодек: H.264
Аудио кодек: AC3
Видео: 4545 kbps,1280x544, 24 кадра/с, 0.272 bpp
Аудио 1: русский, AC3, 448 kbps, 6 ch, 48 kHz [любительский двухголосый, IgVin (Игорь Головин) и Solncekleshka (Татьяна Романовская), с ненормативной лексикой]
Аудио 2: немецкий, AC3, 448 kbps, 6 ch, 48 kHz [оригинал]

Сэмпл

Автор рипа msltel
frame I:1180 Avg QP:18.16 size:100149
frame P:25662 Avg QP:19.39 size: 49313
frame B:109118 Avg QP:21.48 size: 17516

Общее
Уникальный идентификатор : 210802748569726977415775821876180362142 (0x9E9721F0F4E8A3C6A311AD730471239E)
Полное имя : D:VideoVinsent hochet k morju.2010.BDRip.720p.mkv
Формат : Matroska
Версия формата : Version 4 / Version 2
Размер файла : 3,66 Гбайт
Продолжительность : 1 ч. 34 м.
Общий поток : 5551 Кбит/сек
Дата кодирования : UTC 2014-11-13 10:41:34
Программа кодирования : mkvmerge v7.3.0 ('Nouages') 64bit built on Oct 22 2014 18:53:34
Библиотека кодирования : libebml v1.3.0 + libmatroska v1.4.1
DURATION : 01:29:43.541000000
NUMBER_OF_FRAMES : 651
NUMBER_OF_BYTES : 41399
_STATISTICS_WRITING_APP : mkvmerge v7.3.0 ('Nouages') 64bit built on Oct 22 2014 18:53:34
_STATISTICS_WRITING_DATE_UTC : 2014-11-13 10:41:34
_STATISTICS_TAGS : BPS DURATION NUMBER_OF_FRAMES NUMBER_OF_BYTES

Видео
Идентификатор : 1
Формат : AVC
Формат/Информация : Advanced Video Codec
Профиль формата : High@L4.1
Параметр CABAC формата : Да
Параметр ReFrames формата : 9 кадров
Идентификатор кодека : V_MPEG4/ISO/AVC
Продолжительность : 1 ч. 34 м.
Битрейт : 4545 Кбит/сек
Ширина : 1280 пикселей
Высота : 544 пикселя
Соотношение сторон : 2,35:1
Режим частоты кадров : Постоянный
Частота кадров : 24,000 кадра/сек
Цветовое пространство : YUV
Субдискретизация насыщенности : 4:2:0
Битовая глубина : 8 бит
Тип развёртки : Прогрессивная
Бит/(Пиксели*Кадры) : 0.272
Размер потока : 3,00 Гбайт (82%)
Заголовок : BDRip -- STarankov
Библиотека кодирования : x264 core 142 r2431 ac76440
Настройки программы : cabac=1 / ref=9 / deblock=1:-1:-1 / analyse=0x3:0x113 / me=umh / subme=10 / psy=1 / psy_rd=1.00:0.15 / mixed_ref=1 / me_range=32 / chroma_me=1 / trellis=2 / 8x8dct=1 / cqm=0 / deadzone=21,11 / fast_pskip=1 / chroma_qp_offset=-3 / threads=6 / lookahead_threads=1 / sliced_threads=0 / nr=0 / decimate=1 / interlaced=0 / bluray_compat=0 / constrained_intra=0 / bframes=8 / b_pyramid=2 / b_adapt=2 / b_bias=0 / direct=3 / weightb=1 / open_gop=0 / weightp=2 / keyint=230 / keyint_min=23 / scenecut=40 / intra_refresh=0 / rc_lookahead=40 / rc=crf / mbtree=0 / crf=19.0 / qcomp=0.60 / qpmin=0 / qpmax=69 / qpstep=4 / vbv_maxrate=50000 / vbv_bufsize=62500 / crf_max=0.0 / nal_hrd=none / filler=0 / ip_ratio=1.40 / pb_ratio=1.30 / aq=1:1.00
Язык : German
Default : Да
Forced : Нет
DURATION : 01:34:25.000000000
NUMBER_OF_FRAMES : 135960
NUMBER_OF_BYTES : 3294928102
_STATISTICS_WRITING_APP : mkvmerge v7.3.0 ('Nouages') 64bit built on Oct 22 2014 18:53:34
_STATISTICS_WRITING_DATE_UTC : 2014-11-13 10:41:34
_STATISTICS_TAGS : BPS DURATION NUMBER_OF_FRAMES NUMBER_OF_BYTES

Аудио #1
Идентификатор : 2
Формат : AC-3
Формат/Информация : Audio Coding 3
Расширение режима : CM (complete main)
Параметр Endianness формата : Big
Идентификатор кодека : A_AC3
Продолжительность : 1 ч. 34 м.
Вид битрейта : Постоянный
Битрейт : 448 Кбит/сек
Каналы : 6 каналов
Расположение каналов : Front: L C R, Side: L R, LFE
Частота : 48,0 КГц
Битовая глубина : 16 бит
Метод сжатия : С потерями
Размер потока : 303 Мбайт (8%)
Заголовок : DVO (любительский, IgVin (Игорь Головин)&Solncekleshka (Татьяна Романовская))
Язык : Russian
Default : Да
Forced : Нет

Аудио #2
Идентификатор : 3
Формат : AC-3
Формат/Информация : Audio Coding 3
Расширение режима : CM (complete main)
Параметр Endianness формата : Big
Идентификатор кодека : A_AC3
Продолжительность : 1 ч. 34 м.
Вид битрейта : Постоянный
Битрейт : 448 Кбит/сек
Каналы : 6 каналов
Расположение каналов : Front: L C R, Side: L R, LFE
Частота : 48,0 КГц
Битовая глубина : 16 бит
Метод сжатия : С потерями
Размер потока : 303 Мбайт (8%)
Заголовок : Original
Язык : German
Default : Нет
Forced : Нет

Текст
Идентификатор : 4
Формат : UTF-8
Идентификатор кодека : S_TEXT/UTF8
Идентификатор кодека/Информация : UTF-8 Plain Text
Заголовок : русский
Язык : Russian
Default : Нет
Forced : Нет



Скачать Винсент хочет к морю через торрент http://i63.fastpic.ru/big/2014/1113/68/b43172ba8e8fd08a1347eb3bda52ab68.jpg Скачать, смотреть онлайн Винсент хочет к морю бесплантно в хорошем качестве Описание: Последнее желание матери Винсента, страдающего синдромом Туретта, ещё раз увидеть море. И Винсент хочет выполнить это желание. Но ... 9 10 3
Торрент: Зарегистрирован [2014-11-13 14:23] · скачан: 18 раз
Статус: √ проверено
Размер: 3.66 GB
Как cкачать? Как скачать Винсент хочет к морю через торрент | UTorrent




Последний раз редактировалось: msltel (2014-11-14 08:10), всего редактировалось 3 раз(а)

28-11-2019 20:33  


Отключить вcю реклaмy на сайте, в т.ч. и в плеере онлайн просмотра!

    Дорогой пользователь! Огромная просьба, поблагодарите релизера, оцените раздачу и оставьте свои комментарий, если Вы скачали Винсент хочет к морю через торрент бесплатно!!
    Комментировать посты могут только пользователи прошедшие не сложную регистрацию
    Показать сообщения:    


    Винсент хочет к морю через торрент
    Скачать бесплатно Винсент хочет к морю
    Винсент хочет к морю скачать торрент
    Винсент хочет к морю смотреть онлайн
    Cкачать фильм Винсент хочет к морю бесплатно
    Винсент хочет к морю скачать торрент в хорошем качестве
    Винсент хочет к морю смотреть онлайн бесплатно в хорошем качестве
    Вы не можете начинать темы
    Вы не можете отвечать на сообщения
    Вы не можете редактировать свои сообщения
    Вы не можете удалять свои сообщения
    Вы не можете голосовать в опросах
    Вы не можете прикреплять файлы к сообщениям
    Вы можете скачивать файлы
    Винсент хочет к морю / Vincent will meer [2010, драма, BDRip 720p] DVO смотреть онлайн, скачать торрент picoco.icu