Доктор Стрэндж

Лицензия

Добыча

Дубляж

Уэнсдэй

1 сезон

Тор

Дубляж

В эфире

Дубляж

Там, где раки поют

MVO

Властелин колец

1 сезон

Deluxe

pack

Рекомендуем

30

Пиратка

ВАЖНО

ВАЖНО

Ghostwire

Пиратка

jed

RePack

nioh2

RePack

RDR2

RePack

NEED FOR SPEED™ PAYBACK

RePack

скачать торрент

Кинопоиск HD

Острые козырьки 6 сезон

6 сезон

FAR CRY 6

RePack

скачать торрент

Лицензия

скачать торрент

MVO

1

1 сезон

скачать торрент

1 сезон

скачать торрент

Лицензия

  

Перед дверью дьявола / Дом / At the Devil's Door / Home (Николас МакКарти) [2014, США, Ужасы, BDRip 720p, Любительское (одноголосое) [ХиХиДок]]

Перед дверью дьявола через торрент piratbit.org

Размер: 3.79 GB | Добавлен: 8 лет назад | Торрент скачан:102 раза
Смотреть онлайн | Скачать   

24-11-2014 07:10 Перед дверью дьявола Скачать торрент  

Перед дверью дьявола / Дом / At the Devil's Door / Home Год выпуска: 2014
Выпущено:: США
Жанр: Ужасы
Длительность: 01:33:03
Перевод: Любительское (одноголосое) [ХиХиДок]

Режиссериколас МакКарти

В ролях:
Ная Ривера, Ава Акрес, Эршад Аслам, Роб Браунштейн, Тара Бак, Лаура Кай Чен, Ассаф Коэн, Ник Эверсман, Кент Фалкон, Каталина Сандино Морено

Описание:
Неопытную женщину-следователя оправляют на очередное дело. В течение некоторого времени на подведомственном её участке происходят загадочные убийства. Причем смерти отличаются от банальных сцен. Еще одна значимая странность – все покойные жили или же живут в одном доме. Главная героиня решила начать следствие с подробного исследования всех жителей печально известного здания. Обходя квартиру за квартирой, её безверие в мистику сильно пошатнулось. Следователь узнала важную информацию – некто из снимавших здесь комнату провел сеанс черной магии и вызвал дьявола. Скептические взгляды на всё магическое срочно пришлось сменить на увиденные реалии. Сможет ли главная героиня одолеть необычного врага?

Качество: BDRip 720p [HDAccess]
Формат: MKV
Видео кодек: MPEG-4 AVC
Аудио кодек:Русский-AC3, Английский-DTS
Видео: 1280x536, 4009 kbps, 23,976 fps, 0.244
Аудио#1: Русский / 2 ch / 48 kHz / 192 kbps / 16 bit
Аудио#2: Английский / 6 ch / 48 kHz / 1510 kbps / 24 bit - DTS
Субтитры: English

Рейтинг:









General
At.the.Devils.Door.2014.Blu.Ray.720p.CINEMANIA.mkv
Format : Matroska
Format version : Version 4 / Version 2
File size : 3.79 GiB
Duration : 1h 33mn
Overall bit rate : 5 826 Kbps
Movie name : Release Group CINEMANIA
Encoded date : UTC 2014-11-22 22:08:31
Writing application : mkvmerge v7.3.0 ('Nouages') 64bit built on Oct 22 2014 18:53:34
Writing library : libebml v1.3.0 + libmatroska v1.4.1

Video
ID : 1
Format : AVC
Format/Info : Advanced Video Codec
Format profile : High@L4.1
Format settings, CABAC : Yes
Format settings, ReFrames : 12 frames
Codec ID : V_MPEG4/ISO/AVC
Duration : 1h 33mn
Bit rate : 4 009 Kbps
Width : 1 280 pixels
Height : 536 pixels
Display aspect ratio : 2.40:1
Frame rate mode : Constant
Frame rate : 23.976 fps
Color space : YUV
Chroma subsampling : 4:2:0
Bit depth : 8 bits
Scan type : Progressive
Bits/(Pixel*Frame) : 0.244
Stream size : 2.61 GiB (69%)
Title : Release Group CINEMANIA
Writing library : x264 core 142 r2431kMod ac76440
Encoding settings : cabac=1 / ref=12 / deblock=1:-3:-3 / analyse=0x3:0x133 / me=umh / subme=10 / psy=1 / fade_compensate=0.00 / psy_rd=1.05:0.00 / mixed_ref=1 / me_range=24 / chroma_me=1 / trellis=2 / 8x8dct=1 / cqm=0 / deadzone=21,11 / fast_pskip=0 / chroma_qp_offset=-2 / threads=24 / lookahead_threads=4 / sliced_threads=0 / nr=0 / decimate=0 / interlaced=0 / bluray_compat=0 / constrained_intra=0 / fgo=0 / bframes=9 / b_pyramid=2 / b_adapt=2 / b_bias=0 / direct=3 / weightb=1 / open_gop=0 / weightp=2 / keyint=250 / keyint_min=23 / scenecut=40 / intra_refresh=0 / rc=crf / mbtree=0 / crf=15.5000 / qcomp=0.75 / qpmin=0 / qpmax=69 / qpstep=4 / ip_ratio=1.20 / pb_ratio=1.10 / aq=1:0.70
Language : English
Default : Yes
Forced : No

Audio #1
ID : 2
Format : AC-3
Format/Info : Audio Coding 3
Mode extension : CM (complete main)
Format settings, Endianness : Big
Codec ID : A_AC3
Duration : 1h 33mn
Bit rate mode : Constant
Bit rate : 192 Kbps
Channel(s) : 2 channels
Channel positions : Front: L R
Sampling rate : 48.0 KHz
Bit depth : 16 bits
Compression mode : Lossy
Stream size : 128 MiB (3%)
Title : ХиХиДок
Language : Russian
Default : Yes
Forced : Yes

Audio #2
ID : 3
Format : DTS
Format/Info : Digital Theater Systems
Mode : 16
Format settings, Endianness : Big
Codec ID : A_DTS
Duration : 1h 33mn
Bit rate mode : Constant
Bit rate : 1 509 Kbps
Channel(s) : 6 channels
Channel positions : Front: L C R, Side: L R, LFE
Sampling rate : 48.0 KHz
Bit depth : 24 bits
Compression mode : Lossy
Stream size : 1 004 MiB (26%)
Language : English
Default : No
Forced : No

Text #2
ID : 5
Format : UTF-8
Codec ID : S_TEXT/UTF8
Codec ID/Info : UTF-8 Plain Text
Language : English
Default : No
Forced : No

Menu
00:00:00.000 : en:00:00:00.000
00:08:20.417 : en:00:08:20.417
00:14:50.389 : en:00:14:50.389
00:23:52.973 : en:00:23:52.973
00:33:21.458 : en:00:33:21.458
00:40:58.373 : en:00:40:58.373
00:48:10.846 : en:00:48:10.846
00:57:21.146 : en:00:57:21.146
01:05:17.413 : en:01:05:17.413
01:15:43.956 : en:01:15:43.956
01:21:50.030 : en:01:21:50.030
01:28:27.135 : en:01:28:27.135




Скачать Перед дверью дьявола через торрент http://i64.fastpic.ru/big/2014/1123/5a/33757f56b5c97d722dcb95ec014a315a.jpg Скачать, смотреть онлайн Перед дверью дьявола бесплантно в хорошем качестве Описание: Неопытную женщину-следователя оправляют на очередное дело. В течение некоторого времени на подведомственном её участке ... 9.2 10 5
Торрент: Зарегистрирован [2014-11-24 07:10] · скачан: 102 раз
Статус: T временная
Размер: 3.79 GB
Как cкачать? Как скачать Перед дверью дьявола через торрент | UTorrent

% Раздел Тема Автор DL S | L
Фильмы 2014 (Звук TS, Cam, VO, DVO) [ 1.36 GB ] Перед дверью дьявола / Дом / At the Devil's Door / Home | | DLRip, Любительский (одноголосый GEKADOL Скачать
1 | 0

28-11-2019 20:33  


Отключить вcю реклaмy на сайте, в т.ч. и в плеере онлайн просмотра!

24-11-2014 19:08 Перед дверью дьявола Скачать торрент  

Зачем описание подчеркивать линией, читать не удобно, текст сливается (((



    Дорогой пользователь! Огромная просьба, поблагодарите релизера, оцените раздачу и оставьте свои комментарий, если Вы скачали Перед дверью дьявола через торрент бесплатно!!
    Комментировать посты могут только пользователи прошедшие не сложную регистрацию
    Показать сообщения:    


    Перед дверью дьявола через торрент
    Скачать бесплатно Перед дверью дьявола
    Перед дверью дьявола скачать торрент
    Перед дверью дьявола смотреть онлайн
    Cкачать фильм Перед дверью дьявола бесплатно
    Перед дверью дьявола скачать торрент в хорошем качестве
    Перед дверью дьявола смотреть онлайн бесплатно в хорошем качестве
    Вы не можете начинать темы
    Вы не можете отвечать на сообщения
    Вы не можете редактировать свои сообщения
    Вы не можете удалять свои сообщения
    Вы не можете голосовать в опросах
    Вы не можете прикреплять файлы к сообщениям
    Вы можете скачивать файлы
    Перед дверью дьявола / Дом / At the Devil's Door / Home [2014, США, Ужасы, BDRip 720p, Любительское [ХиХиДок]] смотреть онлайн, скачать торрент picoco.icu