1 сезон

1 сезон

iTunes

1

iTunes

Кинопоиск HD

iTunes

13

1 сезон

RePack

30

Deluxe

ВАЖНО

ИГРА 18+

pack

RePack

MK11
pack

Легкие деньги

RePack

jed

RePack

fifa19

RePack

RDR2

RePack

NEED FOR SPEED™ PAYBACK

4 сезон

9 сезон

Бесстыжие 9 сезон

Все сериалы

все сериалы на PB.wtf

RePack

FAR CRY 5
  
Magnet ссылка

Грабеж / Heist (Дэвид Мэмет) [2001, боевик, триллер, драма, криминал , DVDRip] MVO piratbit.org

Грабеж через торрент piratbit.org

Размер: 1.45 GB | Добавлен: 6 лет 5 мес. назад | Торрент скачан:100 раз
Скачать  

02-12-2014 09:06 Грабеж Скачать торрент  

Грабеж / Heist
«Love makes the world go 'round... Love of Gold»


Год выпуска: 2001
Страна: Канада , США
Жанр: боевик, триллер, драма, криминал
Продолжительность: 01:44:37
Перевод: Профессиональный (многоголосый закадровый)

Режиссер: Дэвид Мэмет
Сценарий: Дэвид Мэмет
Продюсер: Арт Линсон, Эли Самаха, Эндрю Стивенс
Оператор: Роберт Элсвит
Композитор : Теодоре Шапиро
Художник: Дэвид Уоско, Изабель Гюэ, Жан-Пьерр Лавуа
Монтаж: Барбара Талливер

В ролях: Джин Хэкмен / Gene Hackman (Joe Moore), Дэнни ДеВито / Danny DeVito (в титрах: Danny Devito) (Mickey Bergman), Делрой Линдо / Delroy Lindo (Bobby «Bob» Blane), Сэм Рокуэлл / Sam Rockwell (Jimmy Silk), Ребекка Пиджон / Rebecca Pidgeon (Fran Moore), Рикки Джей / Ricky Jay (Don «Pinky» Pincus), Пэтти ЛюПон / Patti LuPone (в титрах: Patti Lupone) (Betty Croft), Алан Билзериан / Alan Bilzerian (Fast Food Customer)


Описание: У Джо Мура есть все — красивая молодая жена, деньги, которые ему должны, и работа, которую он любит. Он — вор. Его работа накрывается медным тазом тогда, когда его застукивают при помощи охранной камеры. Его соперник, Бергман шантажирует его, требуя простить долг, а его жена уходит к новичку — другу Бергмана.Мур, его партнер, Бобби Блан и их связной Пинки Пинкус вынуждены собрать команду, которая сделает ограбление по заказу Бергмана, и которое станет последним в карьере Мура.Сдаст ли Бергман Мура полиции? Вернется ли к Муру жена? Выйдут ли сухими из воды Блан и Пинкус? Кому можно верить, а кто предаст? Не будет ли кто-нибудь солгав однажды, лгать в очередной раз? И наконец, кто будет смеяться последним?

Бюджет: $39 000 000
Сборы в США: $23 510 841
Сборы в мире: $28 510 652
Зрители: США 4.36 млн , Испания 225.5 тыс. , Франция 147.5 тыс.
Премьера (мир): 10 сентября 2001
Релиз на DVD: 12 ноября 2002, «Premier Digital»
Рейтинг MPAA: Лицам до 17 лет обязательно присутствие взрослого

Качество: DVDRip
Формат: AVI
Видео кодек: XviD
Аудио кодек: AC3
Видео: 720x400 (16:9), 25.000 fps, XviD, 1 531 Kbps
Аудио: Аудио #1: AC3, 448 Kbps, 48.0 KHz, 6 ch
· В США фильм выпустили в прокат сразу после фильма «Медвежатник» (2001), что пагубно сказалось на сборах фильма и реакции публики.

· Рикки Джей в начале фильма несет стопку книг, среди которых можно заметить одну под названием «Магия Барселоны». Это намек на самого Джея, получившего известность как фокусник и маг.

Код:

General
Complete name                    : Grabej_DVDRip.avi
Format                           : AVI
Format/Info                      : Audio Video Interleave
File size                        : 1.45 GiB
Duration                         : 1h 44mn
Overall bit rate                 : 1 988 Kbps
Writing application              : VirtualDubMod 1.5.10.2 (build 2540/release)
Writing library                  : VirtualDubMod build 2540/release

Video
ID                               : 0
Format                           : MPEG-4 Visual
Format profile                   : Advanced Simple@L5
Format settings, BVOP            : Yes
Format settings, QPel            : No
Format settings, GMC             : No warppoints
Format settings, Matrix          : Custom
Codec ID                         : XVID
Codec ID/Hint                    : XviD
Duration                         : 1h 44mn
Bit rate                         : 1 531 Kbps
Width                            : 720 pixels
Height                           : 400 pixels
Display aspect ratio             : 16:9
Frame rate                       : 25.000 fps
Color space                      : YUV
Chroma subsampling               : 4:2:0
Bit depth                        : 8 bits
Scan type                        : Progressive
Bits/(Pixel*Frame)               : 0.213
Stream size                      : 1.12 GiB (77%)
Writing library                  : XviD 1.2.1 (UTC 2008-12-04)

Audio
ID                               : 1
Format                           : AC-3
Format/Info                      : Audio Coding 3
Mode extension                   : CM (complete main)
Codec ID                         : 2000
Duration                         : 1h 44mn
Bit rate mode                    : Constant
Bit rate                         : 448 Kbps
Channel(s)                       : 6 channels
Channel positions                : Front: L C R, Side: L R, LFE
Sampling rate                    : 48.0 KHz
Bit depth                        : 16 bits
Stream size                      : 335 MiB (23%)
Alignment                        : Split accross interleaves
Interleave, duration             : 40 ms (1.00 video frame)
Interleave, preload duration     : 500 ms





piratbit.org



Скачать Грабеж через торрент http://i64.fastpic.ru/big/2014/1202/e9/c9ddf85a5956e1031df048d36af3d9e9.jpg Скачать фильм Грабеж через торрент бесплантно в хорошем качестве Описание: У Джо Мура есть все — красивая молодая жена, деньги, которые ему должны, и работа, которую он любит. Он — вор. Его работа ... 10 10 2
Торрент: Зарегистрирован [2014-12-02 09:06] · скачан: 100 раз
Статус: √ проверено
Размер: 1.45 GB
Как cкачать? Как скачать Грабеж через торрент | UTorrent

% Раздел Тема Автор DL S | L
Фильмы [HD 720p, 1080p] (Хороший звук DUB, MVO) [ 8.64 GB ] Грабеж / Heist [2001 BDRip 720p] [DVO] + [MVO] + [AVO] + [VO] killermax2013 Скачать
1 | 0

28-11-2019 20:33  

Отключить всю рекламу на сайте

    Дорогой пользователь! Огромная просьба, поблагодарите релизера, оцените раздачу и оставьте свои комментарий, если Вы скачали Грабеж через торрент бесплатно! Внесите свою лепту в развитие PiratBit!
    Комментировать посты могут только пользователи прошедшие не сложную регистрацию
    Показать сообщения:    

    Грабеж через торрент
    Скачать бесплатно Грабеж
    Грабеж скачать торрент
    Грабеж смотреть онлайн
    Cкачать фильм Грабеж бесплатно
    Грабеж скачать торрент в хорошем качестве
    Грабеж смотреть онлайн бесплатно в хорошем качестве


    Вы не можете начинать темы
    Вы не можете отвечать на сообщения
    Вы не можете редактировать свои сообщения
    Вы не можете удалять свои сообщения
    Вы не можете голосовать в опросах
    Вы не можете прикреплять файлы к сообщениям
    Вы можете скачивать файлы