Ссылка на приватное зеркало нашего сайта всего за 1$. Внимание количество ограничено!!!

2 сезон

iTunes

iTunes

1

iTunes

iTunes

iTunes

WEBRip

iTunes

30
pack

Вам бонус

ВАЖНО

!!Акция!!

Alien_RageХит недели

RePack

Horizon Zero Dawn

ИГРА 18+

pack

RePack

jed

!!Акция!!

Alien_Rage

RePack

fifa19

RePack

Assassins Creed: Odyssey

RePack

NEED FOR SPEED™ PAYBACK

4 сезон

9 сезон

Бесстыжие 9 сезон

Все сериалы

все сериалы на PB.wtf

RePack

FAR CRY 5
  

Чтец / The Reader (Стивен Долдри / Stephen Daldry) [2008, США, Германия, драма, мелодрама, BDRip, Профессиональный многоголосый - Лицензия] piratbit.org

Чтец через торрент piratbit.org

Размер: 2.18 GB | Добавлен: 5 лет 9 мес. назад | Торрент скачан:194 раза
Скачать  

04-12-2014 10:01 Чтец Скачать торрент  

Чтец / The Reader«А ты умеешь хранить тайны?»
Год выпуска: 2008
Страна: США, Германия
Жанр: драма, мелодрама
Продолжительность: 02:03:58
Перевод: Профессиональный многоголосый [Лицензия]
Субтитры: Отсутствует
Режиссер: Стивен Долдри / Stephen Daldry
В ролях:


Рэйф Файнс (Michael Berg), Кейт Уинслет (Hanna Schmitz), Давид Кросс (Young Michael Berg), Жанетт Хайн (Brigitte), Сюзанна Лотар (Carla Berg), Алисса Вильм (Emily Berg), Флориан Бартоломай (Thomas Berg), Фредерике Бехт (Angela Berg), Маттиас Хабих (Peter Berg), Фридер Венус (Doctor), Мария-Анна Флигель (Hanna's Neighbour), Хендрик Арнст (Woodyard Worker)

Описание:
Майкл Берг - 52-летний, закрытый в себе адвокат, постоянно думает о своем прошлом. Уже почти 40 лет его гложет мысль о том, что он мог кардинально изменить свою судьбу, и не только свою. Стоит ли думать о прошлом, если это - уже история. Или она ещё продолжается?

Рейтинг:
Бюджет:$32 000 000
MPAA: R - Лицам до 17 лет обязательно присутствие взрослого
Качество: BDRip
Формат: AVI
Видео кодек:XviD
Аудио кодек:AC3
Видео: XviD, 720x384 (1.875), 2058 kbps, 23,976 fps, 0,311 bpp
Аудио: AC3 / 5.1 / 48 kHz / 448 kbps / 16 bit

General
Complete name : D:\Users\_KaisiK_\uTorrent\КИНО\Chtec.2008.XviD.DVDRip(BDRip).avi
Format : AVI
Format/Info : Audio Video Interleave
Format profile : OpenDML
File size : 2.18 GiB
Duration : 2h 3mn
Overall bit rate : 2 519 Kbps
Writing application : VirtualDubMod 1.5.10.2 (build 2542/release)
Writing library : VirtualDubMod build 2542/release

Video
ID : 0
Format : MPEG-4 Visual
Format profile : Advanced Simple@L5
Format settings, BVOP : 1
Format settings, QPel : No
Format settings, GMC : No warppoints
Format settings, Matrix : Custom
Codec ID : XVID
Codec ID/Hint : XviD
Duration : 2h 3mn
Bit rate : 2 059 Kbps
Width : 720 pixels
Height : 384 pixels
Display aspect ratio : 1.875
Frame rate : 23.976 fps
Color space : YUV
Chroma subsampling : 4:2:0
Bit depth : 8 bits
Scan type : Progressive
Compression mode : Lossy
Bits/(Pixel*Frame) : 0.311
Stream size : 1.78 GiB (82%)
Writing library : XviD 1.2.1 (UTC 2008-12-04)

Audio
ID : 1
Format : AC-3
Format/Info : Audio Coding 3
Mode extension : CM (complete main)
Codec ID : 2000
Duration : 2h 3mn
Bit rate mode : Constant
Bit rate : 448 Kbps
Channel(s) : 6 channels
Channel positions : Front: L C R, Side: L R, LFE
Sampling rate : 48.0 KHz
Bit depth : 16 bits
Compression mode : Lossy
Stream size : 397 MiB (18%)
Alignment : Split accross interleaves
Interleave, duration : 42 ms (1.00 video frame)
Interleave, preload duration : 500 ms

[/code]
piratbit.org



Скачать Чтец через торрент http://i68.fastpic.ru/big/2014/1204/40/73dff4258d0487fabd4083ebb5cf0040.png Скачать фильм Чтец через торрент бесплантно в хорошем качестве Описание: Майкл Берг - 52-летний, закрытый в себе адвокат, постоянно думает о своем прошлом. Уже почти 40 лет его гложет мысль о том, что ... 10 10 5
Торрент: Зарегистрирован [2014-12-04 10:01] · скачан: 194 раз
Статус: √ проверено
Размер: 2.18 GB
Как cкачать? Как скачать Чтец через торрент | qTorrent

% Раздел Тема Автор DL S | L
T Релизы по Парсеру [Игры, Сериалы и Фильмы и другое...] [ 1.46 GB ] Чтец / The Reader [2008 BDRip] MVO + MVO sanekbest1 Скачать
2 | 0
Фильмы с авторской озвучкой [ 1.99 GB ] Чтец / The Reader [2008 HDRip] [AVO] killermax2013 Скачать
1 | 0
Фильмы [HD 720p, 1080p] (Хороший звук DUB, MVO) [ 15.26 GB ] Чтец / The Reader [2008 BDRip 1080p] MVO AVO msltel Скачать
2 | 0
Фильмы [HD 720p, 1080p] (Хороший звук DUB, MVO) [ 7.47 GB ] Чтец / The Reader [2008 BDRip 720p] MVO AVO msltel Скачать
2 | 0
Фильмы 2006-2008 [ 2.05 GB ] Чтец / Reader The [2008 HDRip лицензия] Lil Badun Скачать
1 | 0
Фильмы 2006-2008 [ 2.57 GB ] Чтец / The Reader [2008 BDRip] -=BIGBOSS=- Скачать
1 | 0
Фильмы [HD 720p, 1080p] (Хороший звук DUB, MVO) [ 4.2 GB ] Чтец / The Reader [2008 HDDVDRip 720p] slet Скачать
1 | 0

28-11-2019 20:33  

Отключить всю рекламу на сайте

    Дорогой пользователь! Огромная просьба, поблагодарите релизера, оцените раздачу и оставьте свои комментарий, если Вы скачали Чтец через торрент бесплатно! Внесите свою лепту в развитие PiratBit!
    Комментировать посты могут только пользователи прошедшие не сложную регистрацию
    Показать сообщения:    

    Чтец через торрент
    Скачать бесплатно Чтец
    Чтец скачать торрент
    Чтец смотреть онлайн
    Cкачать фильм Чтец бесплатно
    Чтец скачать торрент в хорошем качестве
    Чтец смотреть онлайн бесплатно в хорошем качестве


    Вы не можете начинать темы
    Вы не можете отвечать на сообщения
    Вы не можете редактировать свои сообщения
    Вы не можете удалять свои сообщения
    Вы не можете голосовать в опросах
    Вы не можете прикреплять файлы к сообщениям
    Вы можете скачивать файлы