Ссылка на приватное зеркало нашего сайта всего за 1$. Внимание количество ограничено!!!

2 сезон

iTunes

iTunes

1

iTunes

iTunes

iTunes

WEBRip

iTunes

30
pack

Новость дня

ВАЖНО

!!Акция!!

Alien_RageХит недели

RePack

Horizon Zero Dawn

ИГРА 18+

pack

RePack

jed

!!Акция!!

Alien_Rage

RePack

fifa19

RePack

Assassins Creed: Odyssey

RePack

NEED FOR SPEED™ PAYBACK

4 сезон

9 сезон

Бесстыжие 9 сезон

Все сериалы

все сериалы на PB.wtf

RePack

FAR CRY 5
  

Эль Греко / El Greco (Yannis Smaragdis / Яннис Смарагдис) [2007 г., Биографический, Драма, DVDRip] MVO piratbit.org

Эль Греко через торрент piratbit.org

Размер: 1.37 GB | Добавлен: 5 лет 9 мес. назад | Торрент скачан:18 раз
Скачать  

05-12-2014 13:52 Эль Греко Скачать торрент  

Эль Греко / El Greco
Год выпуска: 2007
Страна: Greece, Spain
Жанр: Биографический, Драма
Продолжительность: 1:51:27
Перевод: Профессиональный многоголосый

Режиссер: Yannis Smaragdis / Яннис Смарагдис



В ролях: Nick Ashdon, Juan Diego Botto, Laia Marull, Lakis Lazopoulos, Dimitra Matsouka, Sotiris Moustakas, Dina Konsta, Giorgos Hristodoulou, Dimitris Kalivokas, Yorgos Charalabidis,

Описание: Эпическая история жизни знаменитого художника и борца за свободу 16-го века Доменикоса Теотокопулоса,
более известного под именем Эль Греко.

Он не оставил после себя учеников, не создал собственной школы и не примкнул ни к одному из художественных направлений того времени. Его искусство было не только шире пределов любой национальной традиции, но и далеко опередило свое время. Уроженец острова Крит, Доминикос Теотокопулос получил прозвище Грек. Именно под этим именем он и вошел в историю искусства.

Бежав от судебных тяжб с Крита, художник много лет проработал в Италии, а позже осел в Испании, в Толедо. О его жизни известно крайне мало, не сохранилось ни одного достоверного автопортрета, исчезла могила с его прахом, давно разрушен дворец маркиза де Вильены, где он жил. Да и само искусство толедского мастера пребывало в забвении вплоть до начала XX века. Но время сохранило самое главное — его картины.


Качество: DVDRip
Формат: AVI
Видео кодек: XVID
Аудио кодек: AC-3
Видео: 672x368 (16:9), 25.000 fps, 1 362 Kbps (0.220 bit/pixel)
Аудио#1: 48.0 KHz, 6 ch, 384 Kbps, CBR
Общее
Полное имя : G:\Эль Греко El Greco\El..Greco.avi
Формат : AVI
Формат/Информация : Audio Video Interleave
Размер файла : 1,37 Гбайт
Продолжительность : 1 ч. 51 м.
Общий поток : 1756 Кбит/сек
Программа кодирования : VirtualDubMod 1.5.10.2 (build 2542/release)
Библиотека кодирования : VirtualDubMod build 2542/release

Видео
Идентификатор : 0
Формат : MPEG-4 Visual
Профиль формата : Advanced Simple@L5
Параметр BVOP формата : Нет
Параметр QPel формата : Нет
Параметр GMC формата : Без точки перехода
Параметр матрицы формата : Выборочная
Идентификатор кодека : XVID
Идентификатор кодека/Подсказка : XviD
Продолжительность : 1 ч. 51 м.
Битрейт : 1362 Кбит/сек
Ширина : 672 пикселя
Высота : 368 пикселей
Соотношение сторон : 1,85:1
Частота кадров : 25,000 кадров/сек
Цветовое пространство : YUV
Субдискретизация насыщенности : 4:2:0
Битовая глубина : 8 бит
Тип развёртки : Прогрессивная
Метод сжатия : С потерями
Бит/(Пиксели*Кадры) : 0.220
Размер потока : 1,06 Гбайт (78%)
Библиотека кодирования : XviD 1.2.0.dev47 (UTC 2006-11-01)

Аудио
Идентификатор : 1
Формат : AC-3
Формат/Информация : Audio Coding 3
Расширение режима : CM (complete main)
Параметр Endianness формата : Big
Идентификатор кодека : 2000
Продолжительность : 1 ч. 51 м.
Вид битрейта : Постоянный
Битрейт : 384 Кбит/сек
Каналы : 6 каналов
Расположение каналов : Front: L C R, Side: L R, LFE
Частота : 48,0 КГц
Битовая глубина : 16 бит
Метод сжатия : С потерями
Размер потока : 306 Мбайт (22%)
Выравнивание : Разделение по промежуткам
Продолжительность промежутка : 40 мс. (1,00 видеокадр)
Время предзагрузки промежутка : 500 мс.

piratbit.org



Скачать Эль Греко через торрент http://pic.kartinco.top/images/8/5wh7x.jpg Скачать фильм Эль Греко через торрент бесплантно в хорошем качестве Описание: Эпическая история жизни знаменитого художника и борца за свободу 16-го века Доменикоса Теотокопулоса,более известного под именем ... 10 10 4
Торрент: Зарегистрирован [2014-12-05 13:52] · скачан: 18 раз
Статус: √ проверено
Размер: 1.37 GB
Как cкачать? Как скачать Эль Греко через торрент | qTorrent

28-11-2019 20:33  

Отключить всю рекламу на сайте

    Дорогой пользователь! Огромная просьба, поблагодарите релизера, оцените раздачу и оставьте свои комментарий, если Вы скачали Эль Греко через торрент бесплатно! Внесите свою лепту в развитие PiratBit!
    Комментировать посты могут только пользователи прошедшие не сложную регистрацию
    Показать сообщения:    

    Эль Греко через торрент
    Скачать бесплатно Эль Греко
    Эль Греко скачать торрент
    Эль Греко смотреть онлайн
    Cкачать фильм Эль Греко бесплатно
    Эль Греко скачать торрент в хорошем качестве
    Эль Греко смотреть онлайн бесплатно в хорошем качестве


    Вы не можете начинать темы
    Вы не можете отвечать на сообщения
    Вы не можете редактировать свои сообщения
    Вы не можете удалять свои сообщения
    Вы не можете голосовать в опросах
    Вы не можете прикреплять файлы к сообщениям
    Вы можете скачивать файлы