Доктор Стрэндж

Лицензия

Добыча

Дубляж

Дом дракона

1 сезон

Тор

Дубляж

В эфире

Дубляж

Там, где раки поют

MVO

Властелин колец

1 сезон

Ultimate

pack

Рекомендуем

30

Пиратка

ВАЖНО

ВАЖНО

Ghostwire

Пиратка

jed

RePack

nioh2

RePack

RDR2

RePack

NEED FOR SPEED™ PAYBACK

RePack

скачать торрент

Кинопоиск HD

Острые козырьки 6 сезон

6 сезон

FAR CRY 6

RePack

скачать торрент

Лицензия

скачать торрент

MVO

1

1 сезон

скачать торрент

1 сезон

скачать торрент

Лицензия

  

Мой брат Дьявол / My Brother the Devil (Салли Эль Хосейни / Sally El Hosaini) [2012, Великобритания, драма, BDRip 720p) VO [Василий Кошкин]

Мой брат Дьявол через торрент piratbit.org

Размер: 6.63 GB | Добавлен: 7 лет 11 мес. назад | Торрент скачан:15 раз
Смотреть онлайн | Скачать   

14-12-2014 03:41 Мой брат Дьявол Скачать торрент  

Мой брат Дьявол / My Brother the Devil


  • Год выпуска: 2012
  • Страна: Великобритания
  • Жанр: драма
  • Продолжительность: 01:51:46
  • Перевод: Любительский (одноголосый)[Василий Кошкин] - перевод на русский язык [helpnikspb]
  • Субтитры: русские
  • Режиссер: Салли Эль Хосейни / Sally El Hosaini
  • В ролях:

    Джеймс Флойд (Rashid), Фейди Эльсайед (Mo), Энтони Уэльс (Izzi), Амира Хазалла (Hanan), Нассер Мемарзиа (Abdul-Aziz), Аймен Хамдуши (Repo), Арнольд Окенг (Aj), Саид Тагмауи (Sayyid), Shyam Kelly (Devonte), МакКелл Дэвид (Demon's Boy), Zachary Scipio (Demon's Younger 1), Райан Таунсенд (Demon's Younger 2)

  • Описание:
    Это история о двух братьях, эмигрантах с ближнего востока, живущих в мрачном районе на окраине Лондона. Восприимчивый четырнадцатилетний Мо боготворит своего старшего брата Рашида, который содержит семью, будучи прозорливым дельцом и членом банды наркоторговцев. Сам девятнадцатилетний Рашид надеется, что его младший брат выберет другой путь в жизни. Когда столкновение с конкурирующей бандой приводит к смерти его лучшего друга, Рашид начинает задаваться вопросом, правильную жизнь он ведет.
    Случайное знакомство с фотографом по имени Саид открывает для него совершенно новый мир и возможности для самореализации, помогая принять собственную природу и усиливая желание изменить свою жизнь. Банда Рашида с подозрением замечает эти перемены в нем. В то же время чувствуя себя преданным братом, Мо вступает в банду, и к тому же рушится все его мировоззрение, когда он обнаруживает, что его обожаемый брат - гей. Чтобы защитить себя и брата, он говорит, что Рашид и Саид увлечены изучением джихада. Но как только правда выходит наружу, банда начинает преследование, жаждя крови Рашида. И теперь Мо должен будет лицом к лицу встретиться с собственными предубеждениями и преодолеть их, если он хочет спасти жизнь своему брату. Подлинное, быстро изменяющееся и атмосферное повествование о взрослении и любви между братьями, каждый из которых должен найти себя и собственный путь в жизни.
  • Рейтинг:



  • Качество: BDRip 720p
  • Формат: :MKV
  • Видео кодек: AVC
  • Аудио кодек: AC3, DTS
  • Видео: 1280x534 (2.40:1), 6784 kbps, 24 fps, 0,414 bpp
  • Аудио №1: русский / 2.0 / 48 kHz / 192 kbps / 16 bit [Василий Кошкин]
  • Аудио №2: английский / 5.1 / 48 kHz / 1510 kbps / 24 bit
  • Релиз от: GEKADOL

    Код:

    General
    Unique ID                                : 252628176678130641246958083472421696629 (0xBE0E6AC237E29A9F9B96A43B09963475)
    Complete name                            : I:\My.Brother.The.Devil.2012.Blu.Ray.720p.CINEMANIA.mkv
    Format                                   : Matroska
    Format version                           : Version 4 / Version 2
    File size                                : 6.63 GiB
    Duration                                 : 1h 51mn
    Overall bit rate                         : 8 487 Kbps
    Movie name                               : Release Group CINEMANIA
    Encoded date                             : UTC 2014-12-13 20:40:37
    Writing application                      : mkvmerge v7.4.0 ('Circles') 64bit built on Dec 12 2014 12:19:56
    Writing library                          : libebml v1.3.0 + libmatroska v1.4.1

    Video
    ID                                       : 1
    Format                                   : AVC
    Format/Info                              : Advanced Video Codec
    Format profile                           : High@L4.1
    Format settings, CABAC                   : Yes
    Format settings, ReFrames                : 9 frames
    Codec ID                                 : V_MPEG4/ISO/AVC
    Duration                                 : 1h 51mn
    Bit rate                                 : 6 784 Kbps
    Width                                    : 1 280 pixels
    Height                                   : 534 pixels
    Display aspect ratio                     : 2.40:1
    Frame rate                               : 24.000 fps
    Color space                              : YUV
    Chroma subsampling                       : 4:2:0
    Bit depth                                : 8 bits
    Scan type                                : Progressive
    Bits/(Pixel*Frame)                       : 0.414
    Stream size                              : 5.17 GiB (78%)
    Title                                    : Release Group CINEMANIA
    Writing library                          : x264 core 142 r2431 ac76440
    Encoding settings                        : cabac=1 / ref=9 / deblock=1:0:0 / analyse=0x3:0x133 / me=umh / subme=9 / psy=1 / psy_rd=1.00:0.00 / mixed_ref=1 / me_range=24 / chroma_me=1 / trellis=2 / 8x8dct=1 / cqm=0 / deadzone=21,11 / fast_pskip=1 / chroma_qp_offset=-2 / threads=6 / lookahead_threads=1 / sliced_threads=0 / nr=0 / decimate=1 / interlaced=0 / bluray_compat=0 / constrained_intra=0 / bframes=9 / b_pyramid=2 / b_adapt=2 / b_bias=0 / direct=3 / weightb=1 / open_gop=0 / weightp=2 / keyint=240 / keyint_min=26 / scenecut=40 / intra_refresh=0 / rc_lookahead=60 / rc=2pass / mbtree=1 / bitrate=6784 / ratetol=1.0 / qcomp=0.60 / qpmin=0 / qpmax=69 / qpstep=4 / cplxblur=20.0 / qblur=0.5 / ip_ratio=2.40 / aq=2:1.00
    Language                                 : English
    Default                                  : Yes
    Forced                                   : No
    Color primaries                          : BT.709-5, BT.1361, IEC 61966-2-4, SMPTE RP177
    Transfer characteristics                 : BT.709-5, BT.1361
    Matrix coefficients                      : BT.709-5, BT.1361, IEC 61966-2-4 709, SMPTE RP177

    Audio #1
    ID                                       : 2
    Format                                   : AC-3
    Format/Info                              : Audio Coding 3
    Mode extension                           : CM (complete main)
    Codec ID                                 : A_AC3
    Duration                                 : 1h 51mn
    Bit rate mode                            : Constant
    Bit rate                                 : 192 Kbps
    Channel(s)                               : 2 channels
    Channel positions                        : Front: L R
    Sampling rate                            : 48.0 KHz
    Bit depth                                : 16 bits
    Compression mode                         : Lossy
    Stream size                              : 154 MiB (2%)
    Title                                    : Василий Кошкин
    Language                                 : Russian
    Default                                  : Yes
    Forced                                   : Yes

    Audio #2
    ID                                       : 3
    Format                                   : DTS
    Format/Info                              : Digital Theater Systems
    Codec ID                                 : A_DTS
    Duration                                 : 1h 51mn
    Bit rate mode                            : Constant
    Bit rate                                 : 1 510 Kbps
    Channel(s)                               : 6 channels
    Channel positions                        : Front: L C R, Side: L R, LFE
    Sampling rate                            : 48.0 KHz
    Bit depth                                : 24 bits
    Compression mode                         : Lossy
    Stream size                              : 1.18 GiB (18%)
    Language                                 : English
    Default                                  : No
    Forced                                   : No

    Text
    ID                                       : 4
    Format                                   : UTF-8
    Codec ID                                 : S_TEXT/UTF8
    Codec ID/Info                            : UTF-8 Plain Text
    Language                                 : Russian
    Default                                  : Yes
    Forced                                   : Yes

    Menu
    00:00:00.000                             : en:00:00:00.000
    00:06:47.917                             : en:00:06:47.917
    00:13:31.125                             : en:00:13:31.125
    00:18:06.583                             : en:00:18:06.583
    00:25:10.750                             : en:00:25:10.750
    00:31:44.667                             : en:00:31:44.667
    00:37:53.542                             : en:00:37:53.542
    00:43:57.917                             : en:00:43:57.917
    00:50:40.083                             : en:00:50:40.083
    00:56:08.500                             : en:00:56:08.500
    01:03:10.583                             : en:01:03:10.583
    01:09:34.583                             : en:01:09:34.583
    01:14:58.833                             : en:01:14:58.833
    01:21:44.625                             : en:01:21:44.625
    01:27:51.250                             : en:01:27:51.250
    01:33:37.708                             : en:01:33:37.708
    01:40:39.750                             : en:01:40:39.750
    01:47:10.458                             : en:01:47:10.458




    Скриншоты:






  • Скачать Мой брат Дьявол через торрент http://i63.fastpic.ru/big/2014/1214/22/d26b0f75e5f0f5363b547d61c6df7222.jpg Скачать, смотреть онлайн Мой брат Дьявол бесплантно в хорошем качестве Описание: Это история о двух братьях, эмигрантах с ближнего востока, живущих в мрачном районе на окраине Лондона. Восприимчивый ... 10 10 1
    Торрент: Зарегистрирован [2014-12-14 03:41] · скачан: 15 раз
    Статус: T временная
    Размер: 6.63 GB
    Как cкачать? Как скачать Мой брат Дьявол через торрент | UTorrent

    28-11-2019 20:33  


    Отключить вcю реклaмy на сайте, в т.ч. и в плеере онлайн просмотра!

      Дорогой пользователь! Огромная просьба, поблагодарите релизера, оцените раздачу и оставьте свои комментарий, если Вы скачали Мой брат Дьявол через торрент бесплатно!!
      Комментировать посты могут только пользователи прошедшие не сложную регистрацию
      Показать сообщения:    


      Мой брат Дьявол через торрент
      Скачать бесплатно Мой брат Дьявол
      Мой брат Дьявол скачать торрент
      Мой брат Дьявол смотреть онлайн
      Cкачать фильм Мой брат Дьявол бесплатно
      Мой брат Дьявол скачать торрент в хорошем качестве
      Мой брат Дьявол смотреть онлайн бесплатно в хорошем качестве
      Вы не можете начинать темы
      Вы не можете отвечать на сообщения
      Вы не можете редактировать свои сообщения
      Вы не можете удалять свои сообщения
      Вы не можете голосовать в опросах
      Вы не можете прикреплять файлы к сообщениям
      Вы можете скачивать файлы
      Мой брат Дьявол / My Brother the Devil [2012, Великобритания, драма, BDRip 720p) VO [Василий Кошкин] смотреть онлайн, скачать торрент picoco.icu