Доктор Стрэндж

Лицензия

Добыча

Дубляж

Дом дракона

1 сезон

Тор

Дубляж

В эфире

Дубляж

Там, где раки поют

MVO

Властелин колец

1 сезон

Ultimate

pack

Рекомендуем

30

Пиратка

ВАЖНО

ВАЖНО

Ghostwire

Пиратка

jed

RePack

nioh2

RePack

RDR2

RePack

NEED FOR SPEED™ PAYBACK

RePack

скачать торрент

Кинопоиск HD

Острые козырьки 6 сезон

6 сезон

FAR CRY 6

RePack

скачать торрент

Лицензия

скачать торрент

MVO

1

1 сезон

скачать торрент

1 сезон

скачать торрент

Лицензия

  

Мул / The Mule (Тони Махони / Tony Mahony, Энгус Сэмпсон / Angus Sampson) [2014, Австралия, криминал,BDRip 720p , Любительский (двухголосый)[den904, DeadSno]

Мул через торрент piratbit.org

Размер: 4.7 GB | Добавлен: 7 лет 11 мес. назад | Торрент скачан:56 раз
Смотреть онлайн | Скачать   

15-12-2014 06:09 Мул Скачать торрент  

Мул / The Mule
«Это то, что внутри»


  • Год выпуска: 2014
  • Страна: Австралия
  • Жанр: криминал
  • Продолжительность: 01:42:37
  • Перевод: Любительский (двухголосый)[den904, DeadSno]

    Субтитры: English
  • Режиссер: Тони Махони / Tony Mahony, Энгус Сэмпсон / Angus Sampson
  • В ролях:

    Хьюго Уивинг (Croft), Энгус Сэмпсон (Ray Jenkins), Ли Уоннелл (Gavin), Ивен Лесли (Paris), Джофф Морелл, Джорджина Хэйг, Нони Хазлхерст, Джон Ноубл (Pat Shepherd), Ник Фарнелл (Customs Guy), Саймон Кинг (Dr. Zaki), Крис Пэнг (Phuk), Lasarus Ratuere (Josh)

  • Описание:
    История о наивном человеке, который согласился на перевозку наркотиков в своем желудке и был задержан федеральной полицией. Он, оставшийся один и напуганный, принимает отчаянное решение: бросает вызов своему организму и удерживает доказательства внутри... в буквальном смысле. Поступая таким образом, он становится «человеческой бомбой замедленного действия», затаскивая полицейских, преступников и свою семью в безвыходную авантюру.
  • Рейтинг:



  • Качество: BDRip 720p [CADAVER]
  • Формат: :MKV
  • Видео кодек: AVC
  • Аудио кодек: DTS,AC3
  • Видео: 4592 kb/s, 1280x536, 24 fps
  • Аудио1: 5.1 / 48 kHz / 448 kbps / 16 bit
  • Аудио2: English: DTS, 1510 kb/s (6 ch) / 48 kHz
  • Оформление: GEKADOL

    Код:

    eneral
    The.Mule.2014.Blu.Ray.720p.CINEMANIA.mkv
    Format : Matroska
    Format version : Version 4 / Version 2
    File size : 4.70 GiB
    Duration : 1h 42mn
    Overall bit rate : 6 551 Kbps
    Movie name : Release Group CINEMANIA
    Encoded date : UTC 2014-12-14 11:50:50
    Writing application : mkvmerge v7.4.0 ('Circles') 64bit built on Dec 12 2014 12:19:56
    Writing library : libebml v1.3.0 + libmatroska v1.4.1

    Video
    ID : 1
    Format : AVC
    Format/Info : Advanced Video Codec
    Format profile : High@L4.1
    Format settings, CABAC : Yes
    Format settings, ReFrames : 9 frames
    Codec ID : V_MPEG4/ISO/AVC
    Duration : 1h 42mn
    Bit rate : 4 592 Kbps
    Width : 1 280 pixels
    Height : 536 pixels
    Display aspect ratio : 2.40:1
    Frame rate mode : Constant
    Frame rate : 24.000 fps
    Color space : YUV
    Chroma subsampling : 4:2:0
    Bit depth : 8 bits
    Scan type : Progressive
    Bits/(Pixel*Frame) : 0.279
    Stream size : 3.20 GiB (68%)
    Title : Release Group CINEMANIA
    Writing library : x264 core 142 r2491 24e4fed
    Encoding settings : cabac=1 / ref=9 / deblock=1:-3:-3 / analyse=0x3:0x113 / me=umh / subme=10 / psy=1 / psy_rd=1.05:0.00 / mixed_ref=1 / me_range=24 / chroma_me=1 / trellis=2 / 8x8dct=1 / cqm=0 / deadzone=6,6 / fast_pskip=0 / chroma_qp_offset=-2 / threads=12 / lookahead_threads=2 / sliced_threads=0 / nr=0 / decimate=0 / interlaced=0 / bluray_compat=0 / constrained_intra=0 / bframes=8 / b_pyramid=2 / b_adapt=2 / b_bias=0 / direct=3 / weightb=1 / open_gop=0 / weightp=2 / keyint=250 / keyint_min=24 / scenecut=40 / intra_refresh=0 / rc=2pass / mbtree=0 / bitrate=4592 / ratetol=1.0 / qcomp=0.80 / qpmin=0 / qpmax=69 / qpstep=4 / cplxblur=20.0 / qblur=0.5 / ip_ratio=1.10 / pb_ratio=1.10 / aq=1:0.70
    Language : English
    Default : Yes
    Forced : No

    Audio #1
    ID : 2
    Format : AC-3
    Format/Info : Audio Coding 3
    Mode extension : CM (complete main)
    Format settings, Endianness : Big
    Codec ID : A_AC3
    Duration : 1h 42mn
    Bit rate mode : Constant
    Bit rate : 448 Kbps
    Channel(s) : 6 channels
    Channel positions : Front: L C R, Side: L R, LFE
    Sampling rate : 48.0 KHz
    Bit depth : 16 bits
    Compression mode : Lossy
    Stream size : 329 MiB (7%)
    Title : Влад и Снежинка
    Language : Russian
    Default : Yes
    Forced : Yes

    Audio #2
    ID : 3
    Format : DTS
    Format/Info : Digital Theater Systems
    Mode : 16
    Format settings, Endianness : Big
    Codec ID : A_DTS
    Duration : 1h 42mn
    Bit rate mode : Constant
    Bit rate : 1 509 Kbps
    Channel(s) : 6 channels
    Channel positions : Front: L C R, Side: L R, LFE
    Sampling rate : 48.0 KHz
    Bit depth : 24 bits
    Compression mode : Lossy
    Stream size : 1.08 GiB (23%)
    Language : English
    Default : No
    Forced : No

    Text #1
    ID : 5
    Format : UTF-8
    Codec ID : S_TEXT/UTF8
    Codec ID/Info : UTF-8 Plain Text
    Language : English
    Default : No
    Forced : No

    Menu
    00:00:00.000 : en:00:00:00.000
    00:06:50.208 : en:00:06:50.208
    00:13:49.083 : en:00:13:49.083
    00:20:41.958 : en:00:20:41.958
    00:27:58.083 : en:00:27:58.083
    00:35:03.875 : en:00:35:03.875
    00:42:09.292 : en:00:42:09.292
    00:48:45.208 : en:00:48:45.208
    00:57:17.667 : en:00:57:17.667
    01:04:44.208 : en:01:04:44.208
    01:24:59.542 : en:01:24:59.542
    01:37:34.375 : en:01:37:34.375




    Скриншоты:





  • Скачать Мул через торрент http://i66.fastpic.ru/big/2014/1215/ec/6c50e462d23ad795876b8accd956c7ec.jpg Скачать, смотреть онлайн Мул бесплантно в хорошем качестве Описание: История о наивном человеке, который согласился на перевозку наркотиков в своем желудке и был задержан федеральной полицией. Он, ... 10 10 3
    Торрент: Зарегистрирован [2014-12-15 06:13] · скачан: 56 раз
    Статус: T временная
    Размер: 4.7 GB
    Как cкачать? Как скачать Мул через торрент | UTorrent

    % Раздел Тема Автор DL S | L
    T Фильмы [HD 720p, 1080p] (Звук Cam, VO, DVO) [ 8.45 GB ] Мул / The Mule | | 1080p , Любительский (двухголосый Ворон Скачать
    1 | 0
    Фильмы 2014 (Звук TS, Cam, VO, DVO) [ 1.46 GB ] Мул / The Mule | | HDRip, Любительский (двухголосый GEKADOL Скачать
    1 | 0

    28-11-2019 20:33  


    Отключить вcю реклaмy на сайте, в т.ч. и в плеере онлайн просмотра!

      Дорогой пользователь! Огромная просьба, поблагодарите релизера, оцените раздачу и оставьте свои комментарий, если Вы скачали Мул через торрент бесплатно!!
      Комментировать посты могут только пользователи прошедшие не сложную регистрацию
      Показать сообщения:    


      Мул через торрент
      Скачать бесплатно Мул
      Мул скачать торрент
      Мул смотреть онлайн
      Cкачать фильм Мул бесплатно
      Мул скачать торрент в хорошем качестве
      Мул смотреть онлайн бесплатно в хорошем качестве
      Вы не можете начинать темы
      Вы не можете отвечать на сообщения
      Вы не можете редактировать свои сообщения
      Вы не можете удалять свои сообщения
      Вы не можете голосовать в опросах
      Вы не можете прикреплять файлы к сообщениям
      Вы можете скачивать файлы
      Мул / The Mule [2014, Австралия, криминал,BDRip 720p , Любительский [den904, DeadSno] смотреть онлайн, скачать торрент picoco.icu