Доктор Стрэндж

Лицензия

Добыча

Дубляж

Дом дракона

1 сезон

Тор

Дубляж

В эфире

Дубляж

Там, где раки поют

MVO

Властелин колец

1 сезон

Deluxe

pack

Рекомендуем

30

Пиратка

ВАЖНО

ВАЖНО

Ghostwire

Пиратка

jed

RePack

nioh2

RePack

RDR2

RePack

NEED FOR SPEED™ PAYBACK

RePack

скачать торрент

Кинопоиск HD

Острые козырьки 6 сезон

6 сезон

FAR CRY 6

RePack

скачать торрент

Лицензия

скачать торрент

MVO

1

1 сезон

скачать торрент

1 сезон

скачать торрент

Лицензия

  

Паранормальная больница: Месть тифозной Мэри / Paranormal Asylum: The Revenge of Typhoid Mary (Нимрод Залмановиц ) [2013, ужасы, BDRip 1080p, Любительский (двухголосый)[den904, DeadSno]

Паранормальная больница: Месть тифозной Мэри через торрент piratbit.org

Размер: 7.28 GB | Добавлен: 7 лет 11 мес. назад | Торрент скачан:34 раза
Смотреть онлайн | Скачать   

19-12-2014 06:02 Паранормальная больница: Месть тифозной Мэри Скачать торрент  

Паранормальная больница: Месть тифозной Мэри / Paranormal Asylum: The Revenge of Typhoid Mary

Год выпуска: 2013
Страна: США
Жанр: ужасы
Продолжительность: 01:28:08
Перевод: Любительское (двухголосое) [den904 & DeadSno] - по переводу [Дид Андрон]
Субтитры: Английские
Режиссер: Нимрод Залмановиц
В ролях: Розалинд Эшфорд (Ghost), Пол Брайт (Dr. Brooks), Cameron Chiusano (Dan), Grace Evans (Evelin), Лаура Гилрет (Michelle), Аарон Матиас (Mark Goodwin), Дженнифер Ли Митчелл (Typhoid Mary), Тим Мосс (Norm), Anthony Risticati (Orderly), Нэйтан Спитери (Andy), Бумер Тиббс (George Sheffiled), Ilanah Lobel Torres (Teenage Girl)
Описание:
Мэри Мэлоун (известная как Тифозная Мэри) была приписана к нью-йоркскому сумасшедшему дому после обвинения в распространении тифа в начале 20 века. Через десятилетия изоляции она умерла на Острове Северного Брата. 100 лет спустя два друга-режиссера прибыли туда выяснить, что же произошло на самом деле. То, что начиналось как обычное расследование, заканчивается гонкой за выживание, так как Мэри хоть и умерла, но ее проклятие - нет.
Рейтинг:

Качество: BDRip (1080p)
Формат: MKV
Видео кодек: AVC
Аудио кодек:AC3
Видео: , 10800 Кбит/с, 1920x1080, 23,976 fps
Аудио №1: AC3 / 5.1 / 48 kHz / 384 kbps / Русский
Аудио №2: AC3 / 5.1 / 48 kHz / 192 kbps / английский

Код:

General
Paranormal.Asylum.2013.Blu.Ray.1080p.CINEMANIA.mkv
Format : Matroska
Format version : Version 4 / Version 2
File size : 7.28 GiB
Duration : 1h 28mn
Overall bit rate : 11.8 Mbps
Movie name : Release Group CINEMANIA
Encoded date : UTC 2014-12-18 16:44:32
Writing application : mkvmerge v7.4.0 ('Circles') 64bit built on Dec 12 2014 12:19:56
Writing library : libebml v1.3.0 + libmatroska v1.4.1

Video
ID : 1
Format : AVC
Format/Info : Advanced Video Codec
Format profile : High@L4.1
Format settings, CABAC : Yes
Format settings, ReFrames : 4 frames
Codec ID : V_MPEG4/ISO/AVC
Duration : 1h 28mn
Bit rate : 10.8 Mbps
Nominal bit rate : 11.5 Mbps
Width : 1 920 pixels
Height : 1 080 pixels
Display aspect ratio : 16:9
Frame rate mode : Constant
Frame rate : 23.976 fps
Color space : YUV
Chroma subsampling : 4:2:0
Bit depth : 8 bits
Scan type : Progressive
Bits/(Pixel*Frame) : 0.218
Stream size : 6.66 GiB (92%)
Title : Release Group CINEMANIA
Writing library : x264 core 130 r2273 b3065e6
Encoding settings : cabac=1 / ref=1 / deblock=1:0:0 / analyse=0x3:0x113 / me=hex / subme=2 / psy=1 / psy_rd=1.00:0.00 / mixed_ref=0 / me_range=16 / chroma_me=1 / trellis=0 / 8x8dct=1 / cqm=0 / deadzone=21,11 / fast_pskip=1 / chroma_qp_offset=0 / threads=12 / lookahead_threads=4 / sliced_threads=0 / nr=0 / decimate=1 / interlaced=0 / bluray_compat=0 / constrained_intra=0 / bframes=3 / b_pyramid=2 / b_adapt=1 / b_bias=0 / direct=1 / weightb=1 / open_gop=0 / weightp=1 / keyint=240 / keyint_min=24 / scenecut=40 / intra_refresh=0 / rc_lookahead=10 / rc=abr / mbtree=1 / bitrate=11500 / ratetol=1.0 / qcomp=0.60 / qpmin=0 / qpmax=69 / qpstep=4 / vbv_maxrate=62500 / vbv_bufsize=78125 / nal_hrd=none / ip_ratio=1.40 / aq=1:1.00
Language : English
Default : Yes
Forced : No
Color primaries : BT.709
Transfer characteristics : BT.709
Matrix coefficients : BT.709

Audio #1
ID : 2
Format : AC-3
Format/Info : Audio Coding 3
Mode extension : CM (complete main)
Format settings, Endianness : Big
Codec ID : A_AC3
Duration : 1h 28mn
Bit rate mode : Constant
Bit rate : 384 Kbps
Channel(s) : 6 channels
Channel positions : Front: L C R, Side: L R, LFE
Sampling rate : 48.0 KHz
Bit depth : 16 bits
Compression mode : Lossy
Stream size : 242 MiB (3%)
Title : Влад и Снежинка
Language : Russian
Default : Yes
Forced : Yes

Audio #2
ID : 3
Format : AC-3
Format/Info : Audio Coding 3
Mode extension : CM (complete main)
Format settings, Endianness : Big
Codec ID : A_AC3
Duration : 1h 28mn
Bit rate mode : Constant
Bit rate : 384 Kbps
Channel(s) : 6 channels
Channel positions : Front: L C R, Side: L R, LFE
Sampling rate : 48.0 KHz
Bit depth : 16 bits
Compression mode : Lossy
Stream size : 242 MiB (3%)
Language : English
Default : No
Forced : No

Text #1
ID : 5
Format : UTF-8
Codec ID : S_TEXT/UTF8
Codec ID/Info : UTF-8 Plain Text
Language : English
Default : No
Forced : No




Скачать Паранормальная больница: Месть тифозной Мэри через торрент http://i66.fastpic.ru/big/2014/1219/63/ae1833830bd3c96c96d574faef72c163.jpg Скачать, смотреть онлайн Паранормальная больница: Месть тифозной Мэри бесплантно в хорошем качестве Описание: Мэри Мэлоун (известная как Тифозная Мэри) была приписана к нью-йоркскому сумасшедшему дому после обвинения в распространении тифа ... 10 10 3
Торрент: Зарегистрирован [2014-12-19 06:02] · скачан: 34 раз
Статус: √ проверено
Размер: 7.28 GB
Как cкачать? Как скачать Паранормальная больница: Месть тифозной Мэри через торрент | UTorrent

% Раздел Тема Автор DL S | L
Фильмы 2013 (Звук TS, Cam, VO, DVO) [ 1.47 GB ] Паранормальная больница: Месть тифозной Мэри / Paranormal Asylum: The Revenge of Typhoid Mary | | HDRip, Любительский (двухголосый Ворон Скачать
1 | 0

28-11-2019 20:33  


Отключить вcю реклaмy на сайте, в т.ч. и в плеере онлайн просмотра!

    Дорогой пользователь! Огромная просьба, поблагодарите релизера, оцените раздачу и оставьте свои комментарий, если Вы скачали Паранормальная больница: Месть тифозной Мэри через торрент бесплатно!!
    Комментировать посты могут только пользователи прошедшие не сложную регистрацию
    Показать сообщения:    


    Паранормальная больница: Месть тифозной Мэри через торрент
    Скачать бесплатно Паранормальная больница: Месть тифозной Мэри
    Паранормальная больница: Месть тифозной Мэри скачать торрент
    Паранормальная больница: Месть тифозной Мэри смотреть онлайн
    Cкачать фильм Паранормальная больница: Месть тифозной Мэри бесплатно
    Паранормальная больница: Месть тифозной Мэри скачать торрент в хорошем качестве
    Паранормальная больница: Месть тифозной Мэри смотреть онлайн бесплатно в хорошем качестве
    Вы не можете начинать темы
    Вы не можете отвечать на сообщения
    Вы не можете редактировать свои сообщения
    Вы не можете удалять свои сообщения
    Вы не можете голосовать в опросах
    Вы не можете прикреплять файлы к сообщениям
    Вы можете скачивать файлы
    Паранормальная больница: Месть тифозной Мэри / Paranormal Asylum: The Revenge of Typhoid Mary [2013, ужасы, BDRip 1080p, Любительский [den904, DeadSno] смотреть онлайн, скачать торрент picoco.icu