2 сезон

iTunes

1 сезон

1

iTunes

iTunes

iTunes

1 сезон

RePack

30

ИГРА 18+

pack

ВАЖНО

!!Акция!!

Alien_RageХит недели

RePack

MK11
pack

Забери бонус

RePack

jed

!!Акция!!

Alien_Rage

RePack

fifa19

RePack

Assassins Creed: Odyssey

RePack

NEED FOR SPEED™ PAYBACK

4 сезон

9 сезон

Бесстыжие 9 сезон

Все сериалы

все сериалы на PB.wtf

RePack

FAR CRY 5
  

На ярком солнце / Plein soleil (Рене Клеман / René Clément) [ 1960 , Франция, Италия , триллер, криминал , DVDRip, MVO ] piratbit.org

На ярком солнце через торрент piratbit.org

Размер: 1.37 GB | Добавлен: 5 лет 10 мес. назад | Торрент скачан:6 раз
Скачать  

20-12-2014 14:32 На ярком солнце Скачать торрент  

На ярком солнце / Plein soleilГод выпуска:1960
Страна: Франция, Италия
Жанр: триллер, криминал

Продолжительность: 01:52:30
Перевод: Профессиональный (многоголосый, закадровый)

Субтитры: Нет
Режиссер: Рене Клеман / René Clément

В ролях: Ален Делон (Tom Ripley), Мари Лафоре (Marge Duval), Морис Роне (Philippe Greenleaf), Эрно Криза (Riccordi), Фрэнк Латимор (O'Brien), Билли Кирнс (Freddy Miles), Аве Нинки (Signora Gianna), Вивиан Шантель (The Belgian lady), Нерио Бернарди (Agency Director), Барбель Фанже, Лили Романелли (Housekeeper), Николас Петров (Boris)
Описание:
Огромный счет в банке, красивые женщины, яхта, ласковое море - это сладкая жизнь, которую Том Рипли так хочет иметь и которая у Филиппа Гринлифа уже есть. Филипп даже не подозревает, на что готов пойти Том, чтобы сделать его жизнь своей.
Сначала убийство, потом подделка документов, подписи, голоса... И бедный авантюрист превращается в миллионера. Но даже самая искусная подделка всегда остается лишь копией, даже если над ней трудился талантливый мистер Рипли.

Рейтинг
kinopoisk.ru: 8.032 (2300)
imdb.com: 7.80 (7366)
MPAA: PG-13 - Детям до 13 лет просмотр не желателен
Качество: DVDRip
Формат: AVI
Видео кодек: XviD
Аудио кодек: AC3
Видео: XviD, 624x368 (1.696), 1539 kbps, 25 fps, 0,268 bpp
Аудио: русский / AC3 / 2.0 / 48 kHz / 192 kbps / 16 bit
© Оформление by ФёдорOFF
General
Complete name : D:\раздачи\Na.yarkom.solnce.1960.XviD.DVDRip.avi
Format : AVI
Format/Info : Audio Video Interleave
File size : 1.37 GiB
Duration : 1h 52mn
Overall bit rate : 1 739 Kbps
Writing application : VirtualDubMod 1.5.4.1 (build 2178/release)
Writing library : VirtualDubMod build 2178/release

Video
ID : 0
Format : MPEG-4 Visual
Format profile : Advanced Simple@L5
Format settings, BVOP : 1
Format settings, QPel : No
Format settings, GMC : No warppoints
Format settings, Matrix : Custom
Codec ID : XVID
Codec ID/Hint : XviD
Duration : 1h 52mn
Bit rate : 1 540 Kbps
Width : 624 pixels
Height : 368 pixels
Display aspect ratio : 1.696
Frame rate : 25.000 fps
Color space : YUV
Chroma subsampling : 4:2:0
Bit depth : 8 bits
Scan type : Progressive
Compression mode : Lossy
Bits/(Pixel*Frame) : 0.268
Stream size : 1.21 GiB (89%)
Writing library : XviD 1.2.0.dev47 (UTC 2006-11-01)

Audio
ID : 1
Format : AC-3
Format/Info : Audio Coding 3
Mode extension : CM (complete main)
Codec ID : 2000
Duration : 1h 52mn
Bit rate mode : Constant
Bit rate : 192 Kbps
Channel(s) : 2 channels
Channel positions : Front: L R
Sampling rate : 48.0 KHz
Bit depth : 16 bits
Compression mode : Lossy
Stream size : 155 MiB (11%)
Alignment : Split accross interleaves
Interleave, duration : 96 ms (2.40 video frames)
Interleave, preload duration : 96 ms
Language : Russian
piratbit.org



Скачать На ярком солнце через торрент http://i5.imageban.ru/out/2014/12/20/5aa58ed9446fe44836abbe4483e5aefd.jpg Скачать фильм На ярком солнце через торрент бесплантно в хорошем качестве Описание: Огромный счет в банке, красивые женщины, яхта, ласковое море - это сладкая жизнь, которую Том Рипли так хочет иметь и которая у ... 10 10 2
Info! Серебряная раздача, засчитывается только 50% скачанного.
Торрент: Зарегистрирован [2014-12-20 14:32] · скачан: 6 раз
Статус: √ проверено
Размер: 1.37 GB
Как cкачать? Как скачать На ярком солнце через торрент | qTorrent

28-11-2019 20:33  

Отключить всю рекламу на сайте

    Дорогой пользователь! Огромная просьба, поблагодарите релизера, оцените раздачу и оставьте свои комментарий, если Вы скачали На ярком солнце через торрент бесплатно! Внесите свою лепту в развитие PiratBit!
    Комментировать посты могут только пользователи прошедшие не сложную регистрацию
    Показать сообщения:    

    На ярком солнце через торрент
    Скачать бесплатно На ярком солнце
    На ярком солнце скачать торрент
    На ярком солнце смотреть онлайн
    Cкачать фильм На ярком солнце бесплатно
    На ярком солнце скачать торрент в хорошем качестве
    На ярком солнце смотреть онлайн бесплатно в хорошем качестве


    Вы не можете начинать темы
    Вы не можете отвечать на сообщения
    Вы не можете редактировать свои сообщения
    Вы не можете удалять свои сообщения
    Вы не можете голосовать в опросах
    Вы не можете прикреплять файлы к сообщениям
    Вы можете скачивать файлы