Доктор Стрэндж

Лицензия

Добыча

Дубляж

Дом дракона

1 сезон

Тор

Дубляж

В эфире

Дубляж

Там, где раки поют

MVO

Властелин колец

1 сезон

Deluxe

pack

Рекомендуем

30

Пиратка

ВАЖНО

ВАЖНО

Ghostwire

Пиратка

jed

RePack

nioh2

RePack

RDR2

RePack

NEED FOR SPEED™ PAYBACK

RePack

скачать торрент

Кинопоиск HD

Острые козырьки 6 сезон

6 сезон

FAR CRY 6

RePack

скачать торрент

Лицензия

скачать торрент

MVO

1

1 сезон

скачать торрент

1 сезон

скачать торрент

Лицензия

  

Камера пыток / Torture Chamber (Данте Томаселли / Dante Tomaselli) [2013, США, ужасы, BDRip 1080p] VO

Камера пыток через торрент piratbit.org

Размер: 7.86 GB | Добавлен: 7 лет 11 мес. назад | Торрент скачан:52 раза
Смотреть онлайн | Скачать   

21-12-2014 12:40 Камера пыток Скачать торрент  


Название: Камера пыток

Оригинальное название: Torture Chamber

Год выхода: 2013

Страна: США

Продолжительность: 01:32:52

Перевод: Авторский (Ворон)

Озвучено: Любительский одноголосый (Хихикающий доктор)

Жанр: Ужасы

Режиссер: Данте Томаселли

В ролях: Винсент Пасторе, Кристи Санфорд, Линн Лаури, Рон Миллки, Ло Порто Кармен, Элли Петтит, Рэйн Браун, Дэнни Лопес

Описание:

Мальчик, в теле которого поселилось зло, подвергался множеству сеансов изгнания демона, но ни одно из них ему не помогло. Сбежав из заточения он окончательно поддался темным силам и возвращается уже с армией сожженных на огне детей, чтобы с их помощью мстить, отлавливая и убивая всех подряд в ужасной камере пыток, устроенной в замке специально для этих целей.



Качество: BDRip 1080p
Формат: MKV
Видео кодек: AVC
Аудио кодек: DTS
Видео: MPEG-4 AVC, 9100 Кбит/с, 1920х804, 23.976 кадр/с
Звук: Русский (DTS, 6 ch, 1510 Кбит/с)/ 48 kHz
Звук: английский (DTS, 6 ch, 1510 Кбит/с)/ 48 kHz
Полное имя : E:Раздачи_ETorture.Chamber.2013.x264.BDRip.1080p.NovaLan.mkv

Формат : Matroska

Версия формата : Version 4 / Version 2

Размер файла : 7,86 Гбайт

Продолжительность : 1 ч. 32 м.

Общий поток : 12,1 Мбит/сек

Название фильма : Torture Chamber 2013 - NovaLan

Дата кодирования : UTC 2014-12-20 10:01:01

Программа кодирования : mkvmerge v7.4.0 ('Circles') 64bit built on Dec 12 2014 12:19:56

Библиотека кодирования : libebml v1.3.0 + libmatroska v1.4.1

DURATION : 01:32:52.598000000

NUMBER_OF_FRAMES : 522431

NUMBER_OF_BYTES : 1051131172

_STATISTICS_WRITING_APP : mkvmerge v7.4.0 ('Circles') 64bit built on Dec 12 2014 12:19:56

_STATISTICS_WRITING_DATE_UTC : 2014-12-20 10:01:01

_STATISTICS_TAGS : BPS DURATION NUMBER_OF_FRAMES NUMBER_OF_BYTES

Видео

Идентификатор : 1

Формат : AVC

Формат/Информация : Advanced Video Codec

Профиль формата : High@L4.1

Параметр CABAC формата : Да

Параметр ReFrames формата : 4 кадра

Идентификатор кодека : V_MPEG4/ISO/AVC

Продолжительность : 1 ч. 32 м.

Битрейт : 9100 Кбит/сек

Ширина : 1920 пикселей

Высота : 804 пикселя

Соотношение сторон : 2,40:1

Частота кадров : 23,976 кадра/сек

Цветовое пространство : YUV

Субдискретизация насыщенности : 4:2:0

Битовая глубина : 8 бит

Тип развёртки : Прогрессивная

Бит/(Пиксели*Кадры) : 0.246

Размер потока : 5,74 Гбайт (73%)

Заголовок : Sergei7721

Библиотека кодирования : x264 core 133 r2334 a3ac64b

Настройки программы : cabac=1 / ref=4 / deblock=1:-1:-1 / analyse=0x3:0x113 / me=umh / subme=11 / psy=1 / psy_rd=1.00:0.20 / mixed_ref=1 / me_range=24 / chroma_me=1 / trellis=2 / 8x8dct=1 / cqm=0 / deadzone=21,11 / fast_pskip=0 / chroma_qp_offset=-3 / threads=12 / lookahead_threads=1 / sliced_threads=0 / nr=0 / decimate=0 / interlaced=0 / bluray_compat=0 / constrained_intra=0 / bframes=6 / b_pyramid=2 / b_adapt=2 / b_bias=0 / direct=3 / weightb=1 / open_gop=0 / weightp=2 / keyint=240 / keyint_min=23 / scenecut=40 / intra_refresh=0 / rc_lookahead=40 / rc=2pass / mbtree=0 / bitrate=9100 / ratetol=1.0 / qcomp=0.60 / qpmin=0 / qpmax=69 / qpstep=4 / cplxblur=20.0 / qblur=0.5 / vbv_maxrate=50000 / vbv_bufsize=62500 / nal_hrd=none / ip_ratio=1.40 / pb_ratio=1.30 / aq=1:1.00

Default : Да

Forced : Нет

DURATION : 01:32:52.567000000

NUMBER_OF_FRAMES : 133608

NUMBER_OF_BYTES : 6334947297

_STATISTICS_WRITING_APP : mkvmerge v7.4.0 ('Circles') 64bit built on Dec 12 2014 12:19:56

_STATISTICS_WRITING_DATE_UTC : 2014-12-20 10:01:01

_STATISTICS_TAGS : BPS DURATION NUMBER_OF_FRAMES NUMBER_OF_BYTES

Аудио #1

Идентификатор : 2

Формат : DTS

Формат/Информация : Digital Theater Systems

Идентификатор кодека : A_DTS

Продолжительность : 1 ч. 32 м.

Вид битрейта : Постоянный

Битрейт : 1510 Кбит/сек

Каналы : 6 каналов

Расположение каналов : Front: L C R, Side: L R, LFE

Частота : 48,0 КГц

Битовая глубина : 16 бит

Метод сжатия : С потерями

Размер потока : 1003 Мбайт (12%)

Язык : Russian

Default : Да

Forced : Нет

Аудио #2

Идентификатор : 3

Формат : DTS

Формат/Информация : Digital Theater Systems

Идентификатор кодека : A_DTS

Продолжительность : 1 ч. 32 м.

Вид битрейта : Постоянный

Битрейт : 1510 Кбит/сек

Каналы : 6 каналов

Расположение каналов : Front: L C R, Side: L R, LFE

Частота : 48,0 КГц

Битовая глубина : 16 бит

Метод сжатия : С потерями

Размер потока : 1003 Мбайт (12%)

Язык : English

Default : Нет

Forced : Нет

Меню

00:00:00.000 : en:00:00:00.000

00:06:59.961 : en:00:06:59.961

00:13:59.964 : en:00:13:59.964

00:20:59.967 : en:00:20:59.967

00:27:59.928 : en:00:27:59.928

00:34:59.931 : en:00:34:59.931

00:41:59.934 : en:00:41:59.934

00:48:59.895 : en:00:48:59.895

00:55:59.898 : en:00:55:59.898

01:02:59.942 : en:01:02:59.942

01:09:59.945 : en:01:09:59.945

01:19:59.920 : en:01:19:59.920

01:32:52.567 : en:01:32:52.567
Релиз группы NovaLan

Автор релиза Sergei7721







Скачать Камера пыток через торрент http://i63.fastpic.ru/big/2014/1221/ca/e4fbca173bbd5fc2f6e1dfa3edc3feca.jpg Скачать, смотреть онлайн Камера пыток бесплантно в хорошем качестве Описание: Мальчик, в теле которого поселилось зло, подвергался множеству сеансов изгнания демона, но ни одно из них ему не помогло. Сбежав ... 8.2 10 5
Торрент: Зарегистрирован [2014-12-21 12:40] · скачан: 52 раз
Статус: √ проверено
Размер: 7.86 GB
Как cкачать? Как скачать Камера пыток через торрент | UTorrent

% Раздел Тема Автор DL S | L
Фильмы [HD 720p, 1080p] (Звук Cam, VO, DVO) [ 4.3 GB ] Камера пыток / Torture Chamber | | 720p Ворон Скачать
1 | 0

28-11-2019 20:33  


Отключить вcю реклaмy на сайте, в т.ч. и в плеере онлайн просмотра!

21-12-2014 15:19 Камера пыток Скачать торрент  

Дети-это зло!На Западе это давно внушают людям,и посредством таких вот фильмов в том числе.Количество фильмов,где исчадиями ада выступают дети,в последнее время просто зашкаливает.Всё верно,ведь единственно правильные семьи сейчас у них на Западе-это однополые "родители".А двуногую игрушку для них отберут у ещё не проникнившихся новыми модными вениями...



21-12-2014 16:45 Камера пыток Скачать торрент  

Stopper68 писал(а):

Дети-это зло!На Западе это давно внушают людям,и посредством таких вот фильмов в том числе.Количество фильмов,где исчадиями ада выступают дети,в последнее время просто зашкаливает.Всё верно,ведь единственно правильные семьи сейчас у них на Западе-это однополые "родители".А двуногую игрушку для них отберут у ещё не проникнившихся новыми модными вениями...

ну запел- русская идея , духовность и загнивающий запад. не нравится прошел мимо, топай раш тудей смотреть, там все правильно.



22-12-2014 10:41 Камера пыток Скачать торрент  

MalekUA, Насмешил. sarcastic Все правильно, не зачем здесь политику "партии" проводить - сами с усами, разберемся, что к чему. А западо и америко ненависникам, лучше смотреть на тему, там написано - зарубежные фильмы, так что вам мимо.



    Дорогой пользователь! Огромная просьба, поблагодарите релизера, оцените раздачу и оставьте свои комментарий, если Вы скачали Камера пыток через торрент бесплатно!!
    Комментировать посты могут только пользователи прошедшие не сложную регистрацию
    Показать сообщения:    


    Камера пыток через торрент
    Скачать бесплатно Камера пыток
    Камера пыток скачать торрент
    Камера пыток смотреть онлайн
    Cкачать фильм Камера пыток бесплатно
    Камера пыток скачать торрент в хорошем качестве
    Камера пыток смотреть онлайн бесплатно в хорошем качестве
    Вы не можете начинать темы
    Вы не можете отвечать на сообщения
    Вы не можете редактировать свои сообщения
    Вы не можете удалять свои сообщения
    Вы не можете голосовать в опросах
    Вы не можете прикреплять файлы к сообщениям
    Вы можете скачивать файлы
    Камера пыток / Torture Chamber [2013, США, ужасы, BDRip 1080p] VO смотреть онлайн, скачать торрент picoco.icu