Доктор Стрэндж

Лицензия

Добыча

Дубляж

Уэнсдэй

1 сезон

Тор

Дубляж

В эфире

Дубляж

Там, где раки поют

MVO

Властелин колец

1 сезон

Deluxe

pack

Рекомендуем

30

Пиратка

ВАЖНО

ВАЖНО

Ghostwire

Пиратка

jed

RePack

nioh2

RePack

RDR2

RePack

NEED FOR SPEED™ PAYBACK

RePack

скачать торрент

Кинопоиск HD

Острые козырьки 6 сезон

6 сезон

FAR CRY 6

RePack

скачать торрент

Лицензия

скачать торрент

MVO

1

1 сезон

скачать торрент

1 сезон

скачать торрент

Лицензия

  

Зомби: Бойцовский Клуб / Zombie Fight Club (Джо Чиен) [2014, Ужасы, BDRip 1080p] VO

Зомби: Бойцовский Клуб через торрент piratbit.org

Размер: 10.42 GB | Добавлен: 7 лет 11 мес. назад | Торрент скачан:74 раза
Смотреть онлайн | Скачать   

21-12-2014 15:54 Зомби: Бойцовский Клуб Скачать торрент  


Название: Зомби: Бойцовский Клуб

Оригинальное название: Zombie Fight Club

Год выхода: 2014

Страна: Гонконг

Продолжительность: 01:35:00

Перевод: Авторский: Ворон и Хихикающий Доктор

Озвучено: Любительский одноголосый (Хихикающий доктор)

Жанр: Ужасы

Режиссер: Джо Чиен

В ролях: Джессика Камбенси, Эбби Фунг, Чан Хань, и др

Описание:

Мир впал во мрак. Города, как сказано в предсказании, стали кладбищами, а кладбища городами. Эпидемия распространяется из небоскрёба по всему мегаполису. В доме одновременно оказываются разные люди, оказавшиеся там с разными целями. Полицейские, наркодиллеры, школьницы, рэперы, девицы легкого поведения, тусовщики... Они первыми и оказываются жертвами.Небоскрёб превращается в кладбище восставших мертвецов. Эпидемия выходит на улицы города, но она меняет людей, превращая их не только в зомби. Милый и когда-то добрый учитель химии становится хозяином бойцовой арены, на которой люди сражаются с мертвецами. И что ждёт такой грёбаный мир? Надежда или смерть. Умереть или сражаться?





Качество: BDRip 1080p (WiKi)
Формат: MKV
Видео кодек: AVC
Аудио кодек: AC3
Видео: MPEG-4 AVC, 14425 Кбит/с, 1920х804, 24.000 кадр/с
Звук1: Русский (AC3, 6 ch, 640 Кбит/с) / 48 kHz
Звук2: китайский (AC3, 6 ch, 640 Кбит/с) / 48 kHz
Формат : Matroska

Версия формата : Version 4 / Version 2

Размер файла : 10,4 Гбайт

Продолжительность : 1 ч. 35 м.

Общий поток : 15,7 Мбит/сек

Дата кодирования : UTC 2014-12-21 14:14:12

Программа кодирования : mkvmerge v7.4.0 ('Circles') 64bit built on Dec 12 2014 12:19:56

Библиотека кодирования : libebml v1.3.0 + libmatroska v1.4.1

DURATION : 01:35:00.800000000

NUMBER_OF_FRAMES : 178150

NUMBER_OF_BYTES : 456064000

_STATISTICS_WRITING_APP : mkvmerge v7.4.0 ('Circles') 64bit built on Dec 12 2014 12:19:56

_STATISTICS_WRITING_DATE_UTC : 2014-12-21 14:14:12

_STATISTICS_TAGS : BPS DURATION NUMBER_OF_FRAMES NUMBER_OF_BYTES

Видео

Идентификатор : 1

Формат : AVC

Формат/Информация : Advanced Video Codec

Профиль формата : High@L4.1

Параметр CABAC формата : Да

Параметр ReFrames формата : 5 кадров

Идентификатор кодека : V_MPEG4/ISO/AVC

Продолжительность : 1 ч. 35 м.

Битрейт : 14,4 Мбит/сек

Ширина : 1920 пикселей

Высота : 804 пикселя

Соотношение сторон : 2,40:1

Частота кадров : 24,000 кадра/сек

Цветовое пространство : YUV

Субдискретизация насыщенности : 4:2:0

Битовая глубина : 8 бит

Тип развёртки : Прогрессивная

Бит/(Пиксели*Кадры) : 0.389

Размер потока : 9,36 Гбайт (90%)

Библиотека кодирования : x264 core 142 r2491 24e4fed

Настройки программы : cabac=1 / ref=5 / deblock=1:-3:-3 / analyse=0x3:0x133 / me=umh / subme=11 / psy=1 / psy_rd=1.10:0.15 / mixed_ref=1 / me_range=64 / chroma_me=1 / trellis=2 / 8x8dct=1 / cqm=0 / deadzone=21,11 / fast_pskip=0 / chroma_qp_offset=-3 / threads=12 / lookahead_threads=2 / sliced_threads=0 / nr=0 / decimate=1 / interlaced=0 / bluray_compat=0 / constrained_intra=0 / bframes=8 / b_pyramid=2 / b_adapt=2 / b_bias=0 / direct=3 / weightb=1 / open_gop=0 / weightp=2 / keyint=250 / keyint_min=24 / scenecut=40 / intra_refresh=0 / rc_lookahead=60 / rc=2pass / mbtree=1 / bitrate=14425 / ratetol=1.0 / qcomp=0.60 / qpmin=0 / qpmax=69 / qpstep=4 / cplxblur=20.0 / qblur=0.5 / vbv_maxrate=40000 / vbv_bufsize=30000 / nal_hrd=none / filler=0 / ip_ratio=1.40 / aq=1:0.80

Default : Да

Forced : Нет

DURATION : 01:35:00.792000000

NUMBER_OF_FRAMES : 136819

NUMBER_OF_BYTES : 10276006154

_STATISTICS_WRITING_APP : mkvmerge v7.4.0 ('Circles') 64bit built on Dec 12 2014 12:19:56

_STATISTICS_WRITING_DATE_UTC : 2014-12-21 14:14:12

_STATISTICS_TAGS : BPS DURATION NUMBER_OF_FRAMES NUMBER_OF_BYTES

Аудио #1

Идентификатор : 2

Формат : AC-3

Формат/Информация : Audio Coding 3

Расширение режима : CM (complete main)

Параметр Endianness формата : Big

Идентификатор кодека : A_AC3

Продолжительность : 1 ч. 35 м.

Вид битрейта : Постоянный

Битрейт : 640 Кбит/сек

Каналы : 6 каналов

Расположение каналов : Front: L C R, Side: L R, LFE

Частота : 48,0 КГц

Битовая глубина : 16 бит

Метод сжатия : С потерями

Размер потока : 435 Мбайт (4%)

Язык : Russian

Default : Да

Forced : Нет

Аудио #2

Идентификатор : 3

Формат : AC-3

Формат/Информация : Audio Coding 3

Расширение режима : CM (complete main)

Параметр Endianness формата : Big

Идентификатор кодека : A_AC3

Продолжительность : 1 ч. 35 м.

Вид битрейта : Постоянный

Битрейт : 640 Кбит/сек

Каналы : 6 каналов

Расположение каналов : Front: L C R, Side: L R, LFE

Частота : 48,0 КГц

Битовая глубина : 16 бит

Метод сжатия : С потерями

Размер потока : 435 Мбайт (4%)

Язык : Chinese

Default : Нет

Forced : Нет





Скачать Зомби: Бойцовский Клуб через торрент http://i63.fastpic.ru/big/2014/1221/c1/a2bbe21a8cb8bd7758dec824ec357bc1.jpg Скачать, смотреть онлайн Зомби: Бойцовский Клуб бесплантно в хорошем качестве Описание: Мир впал во мрак. Города, как сказано в предсказании, стали кладбищами, а кладбища городами. Эпидемия распространяется из ... 9.9 10 11
Info! Золотая раздача, скачанное не засчитывается.
Торрент: Зарегистрирован [2014-12-21 15:54] · скачан: 74 раз
Статус: √ проверено
Размер: 10.42 GB
Как cкачать? Как скачать Зомби: Бойцовский Клуб через торрент | UTorrent

28-11-2019 20:33  


Отключить вcю реклaмy на сайте, в т.ч. и в плеере онлайн просмотра!

21-12-2014 17:39 Зомби: Бойцовский Клуб Скачать торрент  

Интригующее, спасибо качаю.



21-12-2014 19:45 Зомби: Бойцовский Клуб Скачать торрент  




22-12-2014 18:23 Зомби: Бойцовский Клуб Скачать торрент  

фильм нормал есть даже новые зомбосущества.кровищи то сколько...но как то аж подташнивает...дома высотные эти китайские дом2 б...ь






Последний раз редактировалось: kpuctaluk (2014-12-22 18:49), всего редактировалось 2 раз(а)

22-12-2014 18:30 Зомби: Бойцовский Клуб Скачать торрент  

не плохо бы было если раздающий стал на раздачу. скачано 10 Гб, а отдано 98 Гб



    Дорогой пользователь! Огромная просьба, поблагодарите релизера, оцените раздачу и оставьте свои комментарий, если Вы скачали Зомби: Бойцовский Клуб через торрент бесплатно!!
    Комментировать посты могут только пользователи прошедшие не сложную регистрацию
    Показать сообщения:    


    Зомби: Бойцовский Клуб через торрент
    Скачать бесплатно Зомби: Бойцовский Клуб
    Зомби: Бойцовский Клуб скачать торрент
    Зомби: Бойцовский Клуб смотреть онлайн
    Cкачать фильм Зомби: Бойцовский Клуб бесплатно
    Зомби: Бойцовский Клуб скачать торрент в хорошем качестве
    Зомби: Бойцовский Клуб смотреть онлайн бесплатно в хорошем качестве
    Вы не можете начинать темы
    Вы не можете отвечать на сообщения
    Вы не можете редактировать свои сообщения
    Вы не можете удалять свои сообщения
    Вы не можете голосовать в опросах
    Вы не можете прикреплять файлы к сообщениям
    Вы можете скачивать файлы
    Зомби: Бойцовский Клуб / Zombie Fight Club [2014, Ужасы, BDRip 1080p] VO смотреть онлайн, скачать торрент picoco.icu