Доктор Стрэндж

Лицензия

Добыча

Дубляж

Дом дракона

1 сезон

Тор

Дубляж

В эфире

Дубляж

Там, где раки поют

MVO

Властелин колец

1 сезон

Ultimate

pack

Рекомендуем

30

Пиратка

ВАЖНО

ВАЖНО

Ghostwire

Пиратка

jed

RePack

nioh2

RePack

RDR2

RePack

NEED FOR SPEED™ PAYBACK

RePack

скачать торрент

Кинопоиск HD

Острые козырьки 6 сезон

6 сезон

FAR CRY 6

RePack

скачать торрент

Лицензия

скачать торрент

MVO

1

1 сезон

скачать торрент

1 сезон

скачать торрент

Лицензия

  

Бойцовский клуб зомби / Zombie Fight Club (Джо Чиен ) [2014, ужасы, HDRip, Любительский (двухголосый)[den904, DeadSno]

Бойцовский клуб зомби через торрент piratbit.org

Размер: 8.35 GB | Добавлен: 7 лет 11 мес. назад | Торрент скачан:30 раз
Смотреть онлайн | Скачать   

23-12-2014 08:14 Бойцовский клуб зомби Скачать торрент  


Название: Зомби: Бойцовский Клуб

Оригинальное название: Zombie Fight Club

Год выхода: 2014

Страна: Гонконг

Продолжительность: 01:35:00

Озвучено: Любительский (двухголосый)[den904, DeadSno]

Жанр: Ужасы

Режиссер: Джо Чиен

В ролях: Джессика Камбенси, Эбби Фунг, Чан Хань, и др

Описание:

Мир впал во мрак. Города, как сказано в предсказании, стали кладбищами, а кладбища городами. Эпидемия распространяется из небоскрёба по всему мегаполису. В доме одновременно оказываются разные люди, оказавшиеся там с разными целями. Полицейские, наркодиллеры, школьницы, рэперы, девицы легкого поведения, тусовщики... Они первыми и оказываются жертвами.Небоскрёб превращается в кладбище восставших мертвецов. Эпидемия выходит на улицы города, но она меняет людей, превращая их не только в зомби. Милый и когда-то добрый учитель химии становится хозяином бойцовой арены, на которой люди сражаются с мертвецами. И что ждёт такой грёбаный мир? Надежда или смерть. Умереть или сражаться?



Качество: BDRip 1080p (WiKi)
Формат: MKV
Видео кодек: AVC
Аудио кодек: AC3
Видео: MPEG-4 AVC, 14425 Кбит/с, 1920х804, 24.000 кадр/с
Звук1: Русский (AC3, 6 ch, 640 Кбит/с) / 48 kHz
Звук2: китайский (AC3, 6 ch, 640 Кбит/с) / 48 kHz
General
Zombie.Fight.Club.2014.Blu.Ray.1080p.CINEMANIA.mkv
Format : Matroska
Format version : Version 4 / Version 2
File size : 8.35 GiB
Duration : 1h 35mn
Overall bit rate : 12.6 Mbps
Movie name : Release Group CINEMANIA
Encoded date : UTC 2014-12-22 20:31:26
Writing application : mkvmerge v7.4.0 ('Circles') 64bit built on Dec 12 2014 12:19:56
Writing library : libebml v1.3.0 + libmatroska v1.4.1

Video
ID : 1
Format : AVC
Format/Info : Advanced Video Codec
Format profile : High@L4.1
Format settings, CABAC : Yes
Format settings, ReFrames : 5 frames
Codec ID : V_MPEG4/ISO/AVC
Duration : 1h 35mn
Bit rate : 11.3 Mbps
Width : 1 920 pixels
Height : 804 pixels
Display aspect ratio : 2.40:1
Frame rate mode : Constant
Frame rate : 24.000 fps
Color space : YUV
Chroma subsampling : 4:2:0
Bit depth : 8 bits
Scan type : Progressive
Bits/(Pixel*Frame) : 0.305
Stream size : 7.33 GiB (88%)
Title : Release Group CINEMANIA
Writing library : x264 core 142 r2491 24e4fed
Encoding settings : cabac=1 / ref=5 / deblock=1:-3:-3 / analyse=0x3:0x113 / me=umh / subme=10 / psy=1 / psy_rd=1.00:0.05 / mixed_ref=1 / me_range=32 / chroma_me=1 / trellis=2 / 8x8dct=1 / cqm=0 / deadzone=21,11 / fast_pskip=0 / chroma_qp_offset=-2 / threads=18 / lookahead_threads=1 / sliced_threads=0 / nr=0 / decimate=1 / interlaced=0 / bluray_compat=0 / constrained_intra=0 / bframes=5 / b_pyramid=2 / b_adapt=2 / b_bias=0 / direct=3 / weightb=1 / open_gop=0 / weightp=2 / keyint=250 / keyint_min=24 / scenecut=40 / intra_refresh=0 / rc=2pass / mbtree=0 / bitrate=11298 / ratetol=1.0 / qcomp=0.70 / qpmin=0 / qpmax=69 / qpstep=4 / cplxblur=20.0 / qblur=0.5 / ip_ratio=1.40 / pb_ratio=1.30 / aq=2:1.00
Language : Chinese
Default : Yes
Forced : No

Audio #1
ID : 2
Format : AC-3
Format/Info : Audio Coding 3
Mode extension : CM (complete main)
Format settings, Endianness : Big
Codec ID : A_AC3
Duration : 1h 35mn
Bit rate mode : Constant
Bit rate : 640 Kbps
Channel(s) : 6 channels
Channel positions : Front: L C R, Side: L R, LFE
Sampling rate : 48.0 KHz
Bit depth : 16 bits
Compression mode : Lossy
Stream size : 435 MiB (5%)
Title : Влад и Снежинка
Language : Russian
Default : Yes
Forced : Yes

Audio #2
ID : 3
Format : AC-3
Format/Info : Audio Coding 3
Mode extension : CM (complete main)
Format settings, Endianness : Big
Codec ID : A_AC3
Duration : 1h 35mn
Bit rate mode : Constant
Bit rate : 640 Kbps
Channel(s) : 6 channels
Channel positions : Front: L C R, Side: L R, LFE
Sampling rate : 48.0 KHz
Bit depth : 16 bits
Compression mode : Lossy
Stream size : 435 MiB (5%)
Language : Chinese
Default : No
Forced : No

Text #1
ID : 5
Format : UTF-8
Codec ID : S_TEXT/UTF8
Codec ID/Info : UTF-8 Plain Text
Language : English
Default : No
Forced : No

Menu
00:00:00.000 : zh:00:00:00.000
00:07:56.083 : zh:00:07:56.083
00:13:59.125 : zh:00:13:59.125
00:23:35.958 : zh:00:23:35.958
00:31:03.250 : zh:00:31:03.250
00:41:25.333 : zh:00:41:25.333
00:48:47.167 : zh:00:48:47.167
00:56:29.542 : zh:00:56:29.542
01:04:22.542 : zh:01:04:22.542
01:11:38.625 : zh:01:11:38.625
01:19:48.958 : zh:01:19:48.958
01:31:59.708 : zh:01:31:59.708





Скачать Бойцовский клуб зомби через торрент http://i67.fastpic.ru/big/2014/1223/39/dbffa6d3828bd759486e9cbae7a71439.jpg Скачать, смотреть онлайн Бойцовский клуб зомби бесплантно в хорошем качестве Описание: Мир впал во мрак. Города, как сказано в предсказании, стали кладбищами, а кладбища городами. Эпидемия распространяется из ... 10 10 4
Торрент: Зарегистрирован [2014-12-23 08:14] · скачан: 30 раз
Статус: √ проверено
Размер: 8.35 GB
Как cкачать? Как скачать Бойцовский клуб зомби через торрент | UTorrent

% Раздел Тема Автор DL S | L
Азиатские фильмы [ 1.46 GB ] Бойцовский клуб зомби / Zombie Fight Club | | HDRip, Любительский (двухголосый Ворон Скачать
1 | 0
Азиатские фильмы [ 1.37 GB ] Бойцовский клуб зомби / Zombie Fight Club | | HDRip, Любительский (одноголосый Ворон Скачать
1 | 0
Фильмы [HD 720p, 1080p] (Звук Cam, VO, DVO) [ 10.42 GB ] Зомби: Бойцовский Клуб / Zombie Fight Club | | 1080p Ворон Скачать
1 | 0

28-11-2019 20:33  


Отключить вcю реклaмy на сайте, в т.ч. и в плеере онлайн просмотра!

23-12-2014 11:32 Бойцовский клуб зомби Скачать торрент  

фильм ничего.зомби небоскреб китайцы проститутки зло.сюжет в конце потерялся серий на 50 .бежали бежали и оп как чего думай сам.



23-12-2014 13:13 Бойцовский клуб зомби Скачать торрент  

хорощо сказал-толи фильм ничего так себе-толи вооще ниочом



23-12-2014 13:15 Бойцовский клуб зомби Скачать торрент  

короче додумывай сам



23-12-2014 13:39 Бойцовский клуб зомби Скачать торрент  

Да трешак обычный, чего Вы ждете..это типо Рейд но про зомби))) так пишут. сам не смотрел.



    Дорогой пользователь! Огромная просьба, поблагодарите релизера, оцените раздачу и оставьте свои комментарий, если Вы скачали Бойцовский клуб зомби через торрент бесплатно!!
    Комментировать посты могут только пользователи прошедшие не сложную регистрацию
    Показать сообщения:    


    Бойцовский клуб зомби через торрент
    Скачать бесплатно Бойцовский клуб зомби
    Бойцовский клуб зомби скачать торрент
    Бойцовский клуб зомби смотреть онлайн
    Cкачать фильм Бойцовский клуб зомби бесплатно
    Бойцовский клуб зомби скачать торрент в хорошем качестве
    Бойцовский клуб зомби смотреть онлайн бесплатно в хорошем качестве
    Вы не можете начинать темы
    Вы не можете отвечать на сообщения
    Вы не можете редактировать свои сообщения
    Вы не можете удалять свои сообщения
    Вы не можете голосовать в опросах
    Вы не можете прикреплять файлы к сообщениям
    Вы можете скачивать файлы
    Бойцовский клуб зомби / Zombie Fight Club [2014, ужасы, HDRip, Любительский [den904, DeadSno] смотреть онлайн, скачать торрент picoco.icu