Доктор Стрэндж

Лицензия

Добыча

Дубляж

Дом дракона

1 сезон

Тор

Дубляж

В эфире

Дубляж

Там, где раки поют

MVO

Властелин колец

1 сезон

Deluxe

pack

Рекомендуем

30

Пиратка

ВАЖНО

ВАЖНО

Ghostwire

Пиратка

jed

RePack

nioh2

RePack

RDR2

RePack

NEED FOR SPEED™ PAYBACK

RePack

скачать торрент

Кинопоиск HD

Острые козырьки 6 сезон

6 сезон

FAR CRY 6

RePack

скачать торрент

Лицензия

скачать торрент

MVO

1

1 сезон

скачать торрент

1 сезон

скачать торрент

Лицензия

  

Прирожденный гонщик 2 / Born to Race: Fast Track (Алекс Ранаривело ) [2014, боевик, BDRip [1080p], Любительский (одноголосый) [ИндивИдуалист]

Прирожденный гонщик 2 через торрент piratbit.org

Размер: 7.44 GB | Добавлен: 7 лет 11 мес. назад | Торрент скачан:69 раз
Смотреть онлайн | Скачать   

27-12-2014 07:08 Прирожденный гонщик 2 Скачать торрент  

Прирожденный гонщик 2 / Born to Race: Fast Track

Год выпуска: 2014
Страна: США
Жанр: боевик
Продолжительность: 01:34:07
Перевод: Любительский (одноголосый) [ИндивИдуалист]
Субтитры: русские
Режиссер: Алекс Ранаривело
В ролях: Бретт Даверн (Danny Krueger), Бо Мирчофф (Jake Kendall), Диого Моргадо (Enzo Lauricello), Тиффани Дюпон (Michelle), Билл Сейдж (Frank), Шэрон Лоуренс (Mrs. Dalton), Николь Бадаан (Jessica Dalton), Стив Бонд (Richard Duncannon), Корбин Бернсен (Liam Sterling), Грант Шоу (Jimmy Kendall), Альберто Фрезза (Paulo Lauricello), Джесси Люкен (Luke)
Описание:
Двадцатилетний уличный гонщик - Дэнни Крюгер не останавливается на достигнутом. Гонщик выиграл стипендию от школы вождения "Fast Lane" и двигается дальше. Теперь Дэнни старается доказать, что он достоен принять участие в более крупном соревновании - Lucas Oil Cup. Но не всё так просто... Непредвиденное обстоятельство и Дэнни вынужден сменить напарника. В прошлом соперник - ныне напарник, как Вам такая партия? Личные разногласия могут сыграть...
Рейтинг:

MPAA: PG - Рекомендуется присутствие родителей
Качество: BDRip [1080p]
Формат: MKV
Видео кодек: AVC
Аудио кодек:DTS,AC3
Видео: MPEG-4 AVC/H.264, ~9500 Кбит/с, 1920x816, 25.000 кадра/сек
Аудио 1: русский, AC3, 6 каналов, 448 Кбит/сек, 48 КГц
Аудио 2: английский, DTS, 6 каналов, 1509 Кбит/сек, 48 КГц

Код:

E:с торрентовBorn.To.Race.Fast.Track.2014.Blu.Ray.1080p.mkv
  General
    Unique ID : 175225697784218178200367692624266328176 (0x83D33DE927154BFBA6859DD1CB4CF870)
    Complete name : E:с торрентовBorn.To.Race.Fast.Track.2014.Blu.Ray.1080p.mkv
    Format : Matroska
    Format version : Version 4 / Version 2
    File size : 7.44 GiB
    Duration : 1h 34mn
    Overall bit rate : 11.3 Mbps
    Movie name : Release Group CINEMANIA
    Encoded date : UTC 2014-12-26 19:02:26
    Writing application : mkvmerge v7.4.0 ('Circles') 64bit built on Dec 12 2014 12:19:56
    Writing library : libebml v1.3.0 + libmatroska v1.4.1
  Video #1
    ID : 1
    Format : AVC
    Format/Info : Advanced Video Codec
    Format profile : High@L4.1
    Format settings, CABAC : Yes
    Format settings, ReFrames : 4 frames
    Codec ID : V_MPEG4/ISO/AVC
    Duration : 1h 34mn
    Bit rate : 9 500 Kbps
    Width : 1 920 pixels
    Height : 816 pixels
    Display aspect ratio : 2.35:1
    Frame rate mode : Constant
    Frame rate : 25.000 fps
    Color space : YUV
    Chroma subsampling : 4:2:0
    Bit depth : 8 bits
    Scan type : Progressive
    Bits/(Pixel*Frame) : 0.243
    Stream size : 6.00 GiB (81%)
    Title : Release Group CINEMANIA
    Writing library : x264 core 130 r2273 b3065e6
    Encoding settings : cabac=1 / ref=1 / deblock=1:0:0 / analyse=0x3:0x113 / me=hex / subme=2 / psy=1 / psy_rd=1.00:0.00 / mixed_ref=0 / me_range=16 / chroma_me=1 / trellis=0 / 8x8dct=1 / cqm=0 / deadzone=21,11 / fast_pskip=1 / chroma_qp_offset=0 / threads=12 / lookahead_threads=4 / sliced_threads=0 / nr=0 / decimate=1 / interlaced=0 / bluray_compat=0 / constrained_intra=0 / bframes=3 / b_pyramid=2 / b_adapt=1 / b_bias=0 / direct=1 / weightb=1 / open_gop=0 / weightp=1 / keyint=250 / keyint_min=25 / scenecut=40 / intra_refresh=0 / rc_lookahead=10 / rc=abr / mbtree=1 / bitrate=9500 / ratetol=1.0 / qcomp=0.60 / qpmin=0 / qpmax=69 / qpstep=4 / vbv_maxrate=62500 / vbv_bufsize=78125 / nal_hrd=none / ip_ratio=1.40 / aq=1:1.00
    Language : English
    Default : Yes
    Forced : No
    Color primaries : BT.709
    Transfer characteristics : BT.709
    Matrix coefficients : BT.709
  Audio #2
    ID : 2
    Format : AC-3
    Format/Info : Audio Coding 3
    Mode extension : CM (complete main)
    Format settings, Endianness : Big
    Codec ID : A_AC3
    Duration : 1h 34mn
    Bit rate mode : Constant
    Bit rate : 448 Kbps
    Channel(s) : 6 channels
    Channel positions : Front: L C R, Side: L R, LFE
    Sampling rate : 48.0 KHz
    Bit depth : 16 bits
    Compression mode : Lossy
    Stream size : 302 MiB (4%)
    Title : Индивидуалист
    Language : Russian
    Default : Yes
    Forced : Yes
  Audio #3
    ID : 3
    Format : DTS
    Format/Info : Digital Theater Systems
    Mode : 16
    Format settings, Endianness : Big
    Codec ID : A_DTS
    Duration : 1h 34mn
    Bit rate mode : Constant
    Bit rate : 1 509 Kbps
    Channel(s) : 6 channels
    Channel positions : Front: L C R, Side: L R, LFE
    Sampling rate : 48.0 KHz
    Bit depth : 16 bits
    Compression mode : Lossy
    Stream size : 1 016 MiB (13%)
    Language : English
    Default : No
    Forced : No
  Text #4
    ID : 4
    Format : UTF-8
    Codec ID : S_TEXT/UTF8
    Codec ID/Info : UTF-8 Plain Text
    Language : Russian
    Default : Yes
    Forced : Yes

!Ворон писал(а):


Сцен-рип



Скачать Прирожденный гонщик 2 через торрент http://i64.fastpic.ru/big/2014/1227/18/7ca29206ee41fc1cec9f36444b24a818.png Скачать, смотреть онлайн Прирожденный гонщик 2 бесплантно в хорошем качестве Описание: Двадцатилетний уличный гонщик - Дэнни Крюгер не останавливается на достигнутом. Гонщик выиграл сендию от школы вождения "Fast ... 9.4 10 5
Торрент: Зарегистрирован [2014-12-27 07:08] · скачан: 69 раз
Статус: # сомнительно
Размер: 7.44 GB
Как cкачать? Как скачать Прирожденный гонщик 2 через торрент | UTorrent

% Раздел Тема Автор DL S | L
T Фильмы 2014 (Звук TS, Cam, VO, DVO) [ 1.45 GB ] Прирожденный гонщик 2 / Born to Race: Fast Track | | HDRip, Любительский (одноголосый Ворон Скачать
1 | 0

28-11-2019 20:33  


Отключить вcю реклaмy на сайте, в т.ч. и в плеере онлайн просмотра!

    Дорогой пользователь! Огромная просьба, поблагодарите релизера, оцените раздачу и оставьте свои комментарий, если Вы скачали Прирожденный гонщик 2 через торрент бесплатно!!
    Комментировать посты могут только пользователи прошедшие не сложную регистрацию
    Показать сообщения:    


    Прирожденный гонщик 2 через торрент
    Скачать бесплатно Прирожденный гонщик 2
    Прирожденный гонщик 2 скачать торрент
    Прирожденный гонщик 2 смотреть онлайн
    Cкачать фильм Прирожденный гонщик 2 бесплатно
    Прирожденный гонщик 2 скачать торрент в хорошем качестве
    Прирожденный гонщик 2 смотреть онлайн бесплатно в хорошем качестве
    Вы не можете начинать темы
    Вы не можете отвечать на сообщения
    Вы не можете редактировать свои сообщения
    Вы не можете удалять свои сообщения
    Вы не можете голосовать в опросах
    Вы не можете прикреплять файлы к сообщениям
    Вы можете скачивать файлы
    Прирожденный гонщик 2 / Born to Race: Fast Track [2014, боевик, BDRip [1080p], Любительский [ИндивИдуалист] смотреть онлайн, скачать торрент picoco.icu