Доктор Стрэндж

Лицензия

Добыча

Дубляж

Дом дракона

1 сезон

Тор

Дубляж

В эфире

Дубляж

Там, где раки поют

MVO

Властелин колец

1 сезон

Ultimate

pack

Рекомендуем

30

Пиратка

ВАЖНО

ВАЖНО

Ghostwire

Пиратка

jed

RePack

nioh2

RePack

RDR2

RePack

NEED FOR SPEED™ PAYBACK

RePack

скачать торрент

Кинопоиск HD

Острые козырьки 6 сезон

6 сезон

FAR CRY 6

RePack

скачать торрент

Лицензия

скачать торрент

MVO

1

1 сезон

скачать торрент

1 сезон

скачать торрент

Лицензия

  

С Новым годом / Happy New Year (Фара Кхан) [2014 г., мюзикл, боевик, драма, мелодрама, комедия, криминал, BDRip 720p, Профессиональный двухголосый][den904 & DeadSno]

С Новым годом через торрент piratbit.org

Размер: 6.57 GB | Добавлен: 7 лет 11 мес. назад | Торрент скачан:27 раз
Смотреть онлайн | Скачать   

27-12-2014 10:22 С Новым годом Скачать торрент  

С Новым годом / Happy New Year
Год выпуска: 2014
Страна: Индия, Red Chillies Entertainment
Жанр: мюзикл, боевик, драма, мелодрама, комедия, криминал
Продолжительность:02:59:38
Перевод: Профессиональный двухголосый[den904 & DeadSno]
Субтитры: Русские (на песни)
Режиссер: Фара Кхан
Продюссер: Гаури Кхан, Каруна Бадваль, Карим Морани
Сценарий: Алтея Каушал, Фара Кхан, Майур Пури

Премьера в мире: 23 октября 2014

IMDB 6.70 (13 101)


В ролях: Шах Рукх Кхан, Дипика Падукон, Виван Шах, Абхишек Баччан, Сону Суд, Боман Ирани, Анураг Кашьяп, Анупам Кхер, Джеки Шрофф, Гаури Кхан

Описание: Группа неуклюжих танцоров принимает участие в международном конкурсе танца. Не то, чтобы они мечтали о победе, главная их цель — ограбить банк в Дубае...

Качество: BDRip (720p)
Формат: MKV
Видео кодек: AVC
Аудио кодек: DTS
Видео: MPEG-4 AVC, 4384 Кбит/с, 1280x720, 23.976 fps
Аудио#1: DTS, 6 ch, 755 Кбит/с, 48.0 KHz
Format : Matroska
Format version : Version 4 / Version 2
File size : 6.57 GiB
Duration : 2h 59mn
Overall bit rate mode : Variable
Overall bit rate : 5 243 Kbps
Encoded date : UTC 2014-12-26 14:06:57
Writing application : mkvmerge v7.2.0 ('On Every Street') 64bit built on Sep 13 2014 15:52:10
Writing library : libebml v1.3.0 + libmatroska v1.4.1
DURATION : 02:59:28.022000000
NUMBER_OF_FRAMES : 1009502
NUMBER_OF_BYTES : 1015559012
_STATISTICS_WRITING_APP : mkvmerge v7.2.0 ('On Every Street') 64bit built on Sep 13 2014 15:52:10
_STATISTICS_WRITING_DATE_UTC : 2014-12-26 14:06:57
_STATISTICS_TAGS : BPS DURATION NUMBER_OF_FRAMES NUMBER_OF_BYTES

Video
ID : 1
Format : AVC
Format/Info : Advanced Video Codec
Format profile : High@L4.0
Format settings, CABAC : Yes
Format settings, ReFrames : 4 frames
Codec ID : V_MPEG4/ISO/AVC
Duration : 2h 59mn
Bit rate mode : Variable
Bit rate : 4 384 Kbps
Maximum bit rate : 40.0 Mbps
Width : 1 280 pixels
Height : 720 pixels
Display aspect ratio : 16:9
Frame rate mode : Constant
Frame rate : 24.000 fps
Color space : YUV
Chroma subsampling : 4:2:0
Bit depth : 8 bits
Scan type : Progressive
Bits/(Pixel*Frame) : 0.198
Stream size : 5.50 GiB (84%)
Default : Yes
Forced : No
Color primaries : BT.709
Transfer characteristics : BT.709
Matrix coefficients : BT.709

Audio
ID : 3
Format : DTS
Format/Info : Digital Theater Systems
Mode : 16
Format settings, Endianness : Big
Codec ID : A_DTS
Duration : 2h 59mn
Bit rate mode : Constant
Bit rate : 755 Kbps
Channel(s) : 6 channels
Channel positions : Front: L C R, Side: L R, LFE
Sampling rate : 48.0 KHz
Bit depth : 24 bits
Compression mode : Lossy
Delay relative to video : -54ms
Stream size : 969 MiB (14%)
Default : Yes
Forced : No

Text
ID : 2
Format : UTF-8
Codec ID : S_TEXT/UTF8
Codec ID/Info : UTF-8 Plain Text
Default : Yes
Forced : No

С Новым годом скачать торрент





Скачать С Новым годом через торрент http://s.freerutor.com/di/846L/49ff625883a787410f062b3189b48613.jpg Скачать, смотреть онлайн С Новым годом бесплантно в хорошем качестве Описание: Группа неуклюжих танцоров принимает участие в международном конкурсе танца. Не то, чтобы они мечтали о победе, главная их цель — ... 10 10 2
Торрент: Зарегистрирован [2014-12-27 10:22] · скачан: 27 раз
Статус: √ проверено
Размер: 6.57 GB
Как cкачать? Как скачать С Новым годом через торрент | UTorrent

% Раздел Тема Автор DL S | L
Индийское кино [ 1.46 GB ] С Новым годом / Happy New Year | | DLRip, Профессиональный двухголосый Ворон Скачать
1 | 0

28-11-2019 20:33  


Отключить вcю реклaмy на сайте, в т.ч. и в плеере онлайн просмотра!

    Дорогой пользователь! Огромная просьба, поблагодарите релизера, оцените раздачу и оставьте свои комментарий, если Вы скачали С Новым годом через торрент бесплатно!!
    Комментировать посты могут только пользователи прошедшие не сложную регистрацию
    Показать сообщения:    


    С Новым годом через торрент
    Скачать бесплатно С Новым годом
    С Новым годом скачать торрент
    С Новым годом смотреть онлайн
    Cкачать фильм С Новым годом бесплатно
    С Новым годом скачать торрент в хорошем качестве
    С Новым годом смотреть онлайн бесплатно в хорошем качестве
    Вы не можете начинать темы
    Вы не можете отвечать на сообщения
    Вы не можете редактировать свои сообщения
    Вы не можете удалять свои сообщения
    Вы не можете голосовать в опросах
    Вы не можете прикреплять файлы к сообщениям
    Вы можете скачивать файлы
    С Новым годом / Happy New Year [2014 г., мюзикл, боевик, драма, мелодрама, комедия, криминал, BDRip 720p, Профессиональный двухголосый][den904 & DeadSno] смотреть онлайн, скачать торрент picoco.icu