Marvel's Avengers Deluxe Edition (супер цена) 159р. Внимание количество ограничено!!!

2 сезон

iTunes

iTunes

1

iTunes

iTunes

iTunes

WEBRip

iTunes

30
pack

Новость дня

ВАЖНО

!!Акция!!

Alien_RageХит недели

RePack

Horizon Zero Dawn

ИГРА 18+

pack

RePack

jed

!!Акция!!

Alien_Rage

RePack

fifa19

RePack

Assassins Creed: Odyssey

RePack

NEED FOR SPEED™ PAYBACK

4 сезон

9 сезон

Бесстыжие 9 сезон

Все сериалы

все сериалы на PB.wtf

RePack

FAR CRY 5
  

И у холмов есть глаза / The Hills Have Eyes (Unrated) (Александр Ажа) [2006 г., триллер, ужасы, DVDRip, [DVO] (Пётр Гланц и Инна Королёва)] piratbit.org

И у холмов есть глаза через торрент piratbit.org

Размер: 1.37 GB | Добавлен: 5 лет 8 мес. назад | Торрент скачан:70 раз
Скачать  

29-12-2014 06:45 И у холмов есть глаза Скачать торрент  

И у холмов есть глаза / The Hills Have Eyes (Unrated)
Год выпуска: 2006
Страна: США
Жанр: триллер, ужасы
Продолжительность: 1:48:22
Перевод: Профессиональный (двухголосый закадровый) (Пётр Гланц и Инна Королёва)
Субтитры: русские (2 варианта, форсированные), английские (полные, SDH) | отдельно на disk.yandex.ru
Режиссер: Александр Ажа
Продюссер: Уэс Крэйвен, Питер Лок, Марианн Маддалена
Сценарий: Александр Ажа, Грегори Левассёр, Уэс Крэйвен
Бюджет: $15 000 000
Премьера в мире: 10 марта 2006
IMDB 6.40 (109 668)

В ролях: Аарон Стэнфорд, Кэтлин Куинлен, Винесса Шоу, Эмили де Рэвин, Дэн Берд, Том Бауэр, Билли Драго, Роберт Джой, Тед Левайн, Десмонд Аскью
Описание: Путешествуя по Америке в доме на колесах, семейство Картеров, попав в аварию, оказывается в таинственной ядерной зоне, отрезанной от цивилизации. Однако со временем Картеры обнаруживают, что на этой вроде бы пустынной территории обитает кровожадная семейка мутантов, которые начинают вести охоту на них...
Качество: DVDRip
Формат: AVI
Видео кодек: XviD
Аудио кодек: AC3
Видео: 704x304 (2.32:1), 23.976 fps, XviD MPEG-4 ~1608 kbps avg, 0.31 bit/pixel
Аудио: 48 kHz, AC3 Dolby Digital, 2/0 (L,R) ch, ~192 kbps
Релиз от: anton210896


General
Complete name : E:\rip\U.holmov.est.glaza.2006.Unrated.Dt.DVDRip.XviD.AC3.DVO.1400MB.-anton210896\U.holmov.est.glaza.2006.Unrated.Dt.DVDRip.XviD.AC3.DVO.1400MB.avi
Format : AVI
Format/Info : Audio Video Interleave
File size : 1.37 GiB
Duration : 1h 48mn
Overall bit rate : 1 807 Kbps
Movie name : И у холмов есть глаза (2006) | DVDRip by anton210896
Director : anton210896
Genre : триллер, ужасы
Writing application : VirtualDubMod 1.5.4.1 (build 2178/release)
Copyright : © by anton210896 (piratbit.cc)
Comment : 29.12.14

Video
ID : 0
Format : MPEG-4 Visual
Format profile : Advanced Simple@L5
Format settings, BVOP : 1
Format settings, QPel : No
Format settings, GMC : No warppoints
Format settings, Matrix : Custom
Codec ID : XVID
Codec ID/Hint : XviD
Duration : 1h 48mn
Bit rate : 1 608 Kbps
Width : 704 pixels
Height : 304 pixels
Display aspect ratio : 2.35:1
Frame rate : 23.976 fps
Color space : YUV
Chroma subsampling : 4:2:0
Bit depth : 8 bits
Scan type : Progressive
Compression mode : Lossy
Bits/(Pixel*Frame) : 0.313
Stream size : 1.22 GiB (89%)
Writing library : XviD 73

Audio
ID : 1
Format : AC-3
Format/Info : Audio Coding 3
Mode extension : CM (complete main)
Format settings, Endianness : Big
Codec ID : 2000
Duration : 1h 48mn
Bit rate mode : Constant
Bit rate : 192 Kbps
Channel(s) : 2 channels
Channel positions : Front: L R
Sampling rate : 48.0 KHz
Bit depth : 16 bits
Compression mode : Lossy
Stream size : 149 MiB (11%)
Alignment : Split accross interleaves
Interleave, duration : 96 ms (2.30 video frames)
Interleave, preload duratio : 96 ms
piratbit.org



Скачать И у холмов есть глаза через торрент http://i64.fastpic.ru/big/2014/1229/42/68fa292d0dda1ec3f01138f09cf02542.jpg Скачать фильм И у холмов есть глаза через торрент бесплантно в хорошем качестве Описание: Путешествуя по Америке в доме на колесах, семейство Картеров, попав в аварию, оказывается в таинственной ядерной зоне, отрезанной ... 10 10 3
Торрент: Зарегистрирован [2014-12-29 06:45] · скачан: 70 раз
Статус: √ проверено
Размер: 1.37 GB
Как cкачать? Как скачать И у холмов есть глаза через торрент | qTorrent



Последний раз редактировалось: anton210896 (2014-12-29 09:39), всего редактировалось 1 раз

28-11-2019 20:33  

Отключить всю рекламу на сайте

    Дорогой пользователь! Огромная просьба, поблагодарите релизера, оцените раздачу и оставьте свои комментарий, если Вы скачали И у холмов есть глаза через торрент бесплатно! Внесите свою лепту в развитие PiratBit!
    Комментировать посты могут только пользователи прошедшие не сложную регистрацию
    Показать сообщения:    

    И у холмов есть глаза через торрент
    Скачать бесплатно И у холмов есть глаза
    И у холмов есть глаза скачать торрент
    И у холмов есть глаза смотреть онлайн
    Cкачать фильм И у холмов есть глаза бесплатно
    И у холмов есть глаза скачать торрент в хорошем качестве
    И у холмов есть глаза смотреть онлайн бесплатно в хорошем качестве


    Вы не можете начинать темы
    Вы не можете отвечать на сообщения
    Вы не можете редактировать свои сообщения
    Вы не можете удалять свои сообщения
    Вы не можете голосовать в опросах
    Вы не можете прикреплять файлы к сообщениям
    Вы можете скачивать файлы