1 сезон

3 сезон

iTunes

1

iTunes

DUB Netflix

iTunes

13

1 сезон

RePack

30

Deluxe

pack

Легкие деньги

ВАЖНО

ИГРА 18+

pack

RePack

MK11

RePack

jed

RePack

fifa19

RePack

RDR2

RePack

NEED FOR SPEED™ PAYBACK

4 сезон

9 сезон

Бесстыжие 9 сезон

Все сериалы

все сериалы на PB.wtf

RePack

FAR CRY 5

Anonymous, доброй ночи, мы не успеваем до 1 числа собрать деньги на оплату серверов, помогите нам пожалуйста в это трудное время. В качестве благодарности мы отключим Вам всю рекламу на сайте (укажите свой ник в строку Ваше имя)!

×
  
Magnet ссылка

Деффчонки (Новогодняя серия) (Сергей Корягин, Ольга Френкель, Нигина Сайфуллаева) [2014, Россия, комедия, SATRip) piratbit.org

Деффчонки через торрент piratbit.org

Размер: 909 MB | Добавлен: 6 лет 5 мес. назад | Торрент скачан:249 раз
Скачать  

29-12-2014 15:16 Деффчонки Скачать торрент  

Деффчонки (Новогодняя серия)
«Всё, что ты хотел знать о девчонках, но боялся спросить»


  • Год выпуска: 2014
  • Страна: Россия
  • Жанр: комедия
  • Продолжительность: 01:05:36
  • Перевод: Не требуется

  • Режиссер: Сергей Корягин, Ольга Френкель, Нигина Сайфуллаева
  • В ролях:

    Галина Боб (Маша «Бобылыч» Бобылкина, официантка), Анастасия Денисова (Катя «Пална» Швиммер, секретарша), Полина Максимова (Ольга «Леля» Ржевская, красотка-содержанка), Таисия Вилкова (Василиса «Васька» Бобылкина, младшая сестра Маши), Родион Юрин (Игорь Михайлович, начальник Кати), Наталья Унгард (Галина Ивановна, бухгалтер), Александр Серов (Макс, коллега Кати), Алексей Воробьев (Сергей Звонарев, телезвезда), Тимур Боканча (Николай, сисадмин), Софья Урицкая (Зоя, официантка), Александр Касаткин (Яша, кавалер Васьки), Алексей Самсонов (бармен)

  • Описание:
    Специальная новогодняя серия о четырех подругах, мечтающих стать москвичками. Леля, Пална, Бобылыч и Васька придут и сожрут твой «Оливье»!...
  • Рейтинг:



  • Качество: SATRip
  • Формат: :AVI
  • Видео кодек: XviD
  • Аудио кодек: MP3
  • Видео: 720x400 (16:9), 1799 kbps, 25 fps, 0,250 bpp
  • Аудио: 2.0 / 48 kHz / 128 kbps /
  • Релиз от: GEKADOL

    Код:

    General
    Complete name                            : I:\Deffchonki.Novogodniaja.serija.SATRip.avi
    Format                                   : AVI
    Format/Info                              : Audio Video Interleave
    File size                                : 909 MiB
    Duration                                 : 1h 5mn
    Overall bit rate                         : 1 937 Kbps
    Writing library                          : VirtualDub build 32817/release

    Video
    ID                                       : 0
    Format                                   : MPEG-4 Visual
    Format profile                           : Advanced Simple@L5
    Format settings, BVOP                    : 2
    Format settings, QPel                    : No
    Format settings, GMC                     : No warppoints
    Format settings, Matrix                  : Default (MPEG)
    Codec ID                                 : XVID
    Codec ID/Hint                            : XviD
    Duration                                 : 1h 5mn
    Bit rate                                 : 1 800 Kbps
    Width                                    : 720 pixels
    Height                                   : 400 pixels
    Display aspect ratio                     : 16:9
    Frame rate                               : 25.000 fps
    Color space                              : YUV
    Chroma subsampling                       : 4:2:0
    Bit depth                                : 8 bits
    Scan type                                : Progressive
    Compression mode                         : Lossy
    Bits/(Pixel*Frame)                       : 0.250
    Stream size                              : 845 MiB (93%)
    Writing library                          : XviD 1.2.1 (UTC 2008-12-04)

    Audio
    ID                                       : 1
    Format                                   : MPEG Audio
    Format version                           : Version 1
    Format profile                           : Layer 3
    Mode                                     : Joint stereo
    Mode extension                           : MS Stereo
    Codec ID                                 : 55
    Codec ID/Hint                            : MP3
    Duration                                 : 1h 5mn
    Bit rate mode                            : Constant
    Bit rate                                 : 128 Kbps
    Channel(s)                               : 2 channels
    Sampling rate                            : 48.0 KHz
    Compression mode                         : Lossy
    Stream size                              : 60.1 MiB (7%)
    Alignment                                : Split accross interleaves
    Interleave, duration                     : 40 ms (1.00 video frame)
    Interleave, preload duration             : 500 ms


    Скриншоты:



    piratbit.org



  • Скачать Деффчонки через торрент http://i64.fastpic.ru/big/2014/1229/0e/7e1feca29bb042122d65664184e8970e.png Скачать фильм Деффчонки через торрент бесплантно в хорошем качестве Описание: Специальная новогодняя серия о четырех подругах, мечтающих стать москвичками. Леля, Пална, Бобылыч и Васька придут и сожрут твой ... 9.8 10 8
    Info! Золотая раздача, скачанное не засчитывается.
    Торрент: Зарегистрирован [2014-12-29 15:16] · скачан: 249 раз
    Статус: √ проверено
    Размер: 909 MB
    Как cкачать? Как скачать Деффчонки через торрент | UTorrent

    % Раздел Тема Автор DL S | L
    TNT serials [ 16.75 GB ] Деффчонки / Сезон: 6 / Серии: 1-24 из 24 [2018 ситком HDTVRip 720p] bober100 Скачать
    1 | 0
    TNT serials [ 8.76 GB ] Деффчонки / Сезон: 6 / Серии: 1-24 из 24 [2018 Ситком HDTVRip-AVC] bober100 Скачать
    1 | 0
    TNT serials [ 7.4 GB ] Деффчонки / Сезон: 6 / Серии: 1-24 из 24 [2018 Ситком SATRip] bober100 Скачать
    1 | 0
    TNT serials [ 6.5 GB ] Деффчонки / Сезон: 5 / Серии: 1-21 из 21 [2015 ситком SATRip] diletant Скачать
    1 | 0
    TNT serials [ 14.79 GB ] Деффчонки / Сезон: 4 / Серии 1-25 из 25 [ 2014 Россия WEBDLRip -AVC] GEKADOL Скачать
    1 | 0
    TNT serials [ 6.04 GB ] Деффчонки / Сезон: 2 / Серии: 20 из 20 [2013 Ситком SATRip] Mladenec Скачать
    1 | 0
    TNT serials [ 5.65 GB ] Деффчонки / Сезон: 1 Серии: 1-20 из 20 [2012 SATRip] yaros85 Скачать
    1 | 0

    28-11-2019 20:33  

    Отключить всю рекламу на сайте


      Дорогой пользователь! Огромная просьба, поблагодарите релизера, оцените раздачу и оставьте свои комментарий, если Вы скачали Деффчонки через торрент бесплатно! Внесите свою лепту в развитие PiratBit!
      Комментировать посты могут только пользователи прошедшие не сложную регистрацию
      Показать сообщения:    

      Деффчонки через торрент
      Скачать бесплатно Деффчонки
      Деффчонки скачать торрент
      Деффчонки смотреть онлайн
      Cкачать фильм Деффчонки бесплатно
      Деффчонки скачать торрент в хорошем качестве
      Деффчонки смотреть онлайн бесплатно в хорошем качестве


      Вы не можете начинать темы
      Вы не можете отвечать на сообщения
      Вы не можете редактировать свои сообщения
      Вы не можете удалять свои сообщения
      Вы не можете голосовать в опросах
      Вы не можете прикреплять файлы к сообщениям
      Вы можете скачивать файлы