новый адрес
Мега распродажа FORZA HORIZON 4 ULTIMATE+ВСЕ DLC+ОНЛАЙН всего за 499р. 349 руб. (супер цена). Внимание количество ограничено!!!

iTunes

1+1

iTunes

мы

iTunes

1

iTunes

Чернобыль

iTunes

Ральф против интернета

Лицензия

ПШазам

Лицензия

Игра престолов

Лицензия

30
pack

ВАЖНО

!!Акция!!

Alien_RageХит недели

RePack

Resident Evil 21

ИГРА 18+

pack

RePack

Metro:Exodus

!!Акция!!

Alien_Rage

RePack

fifa19

RePack

Assassins Creed: Odyssey

RePack

NEED FOR SPEED™ PAYBACK

3 сезон

9 сезон

Бесстыжие 9 сезон

Все сериалы

все сериалы на PB.wtf

RePack

FAR CRY 5
Ребята, катастрофически не хватает 1900р. для оплаты серверов за Октябрь (всвязи с блокировками трафик упал в 3 раза), 1-2р., выручайте.
  

Заколдованное королевство 3D / Enchanted Kingdom 3D (Патрик Моррис, Нил Найтингейл) [2013 г., документальный, 3D Half-SBS 1080p BDRip, Профессиональный одноголосый] piratbit.org

Заколдованное королевство 3D через торрент piratbit.org

Качают: 1 [ 0 KB/s ]
Размер: 10.56 GB | Добавлен: 4 года 10 мес. назад | Торрент скачан:265 раз
Скачать  

30-12-2014 17:52 Заколдованное королевство 3D Скачать торрент  

Заколдованное королевство 3D / Enchanted Kingdom 3D
Год выпуска: 2013
Страна: Великобритания
Жанр: документальный
Продолжительность: 01:27:19
Перевод: Профессиональный одноголосый
Субтитры: Russian, English

Режиссер: Патрик Моррис, Нил Найтингейл
Продюссер: Майлс Коннолли, Нил Найтингейл, Маркус Артур
Премьера в мире: 5 декабря 2013

IMDB 7.70 (35)


В ролях: Идрис Эльба, Хейли Джоэнн Бэйкон, India Dale-Hill

Описание: Документальный фильм о дикой природе Африки, снятый за 500 дней с применением новейших инновационных 3D технологий, является, самым амбициозным и зрелищным проектом о живой природе известнейшего мирового производителя фильмов об истории Земли — компании BBC.

Доп. информация: Сохранены оригинальные чаптеры как на Blu-ray.

Качество: 3D Half-SBS 1080p BDRip
Формат: MKV
Видео кодек: AVC
Аудио кодек: DTS
Видео: 1920x1080 at 23.976 fps, x264@L4.1, CRF, ~13600 kbps avg
Аудио#1: Russian: 48 kHz, DTS, 3/2 (L,C,R,l,r) + LFE ch, ~1536.00 kbps avg |Одноголосый закадровый, студия «Омикрон»|
Аудио#2: Russian: 48 kHz, DTS, 3/2 (L,C,R,l,r) + LFE ch, ~1536.00 kbps avg |Одноголосый закадровый, Д.Есарев|
Аудио#3: English: 48 kHz, AC3, 3/2 (L,C,R,l,r) + LFE ch, ~448.00 kbps avg
General
Unique ID : 237326832878467280125592531178237485056 (0xB28B7C437BE097CCBA216E583B046000)
Complete name : /home/sb1855/files/Enchanted.Kingdom.2013.1080p.3D.BluRay.Half-SBS.DTS.2xRus.Eng.HDCLUB.mkv
Format : Matroska
Format version : Version 2
File size : 10.6 GiB
Duration : 1h 27mn
Overall bit rate : 17.3 Mbps
Movie name : Enchanted Kingdom 3D (2013) - Release for HDCLUB
Encoded date : UTC 2014-12-28 12:57:44
Writing application : mkvmerge v3.4.0 ('Rapunzel') built on May 15 2010 09:38:20
Writing library : libebml v0.8.0 + libmatroska v0.9.0

Video
ID : 1
Format : AVC
Format/Info : Advanced Video Codec
Format profile : High@L4.1
MultiView_Count : 2
MultiView_Layout : Right Eye
Format settings, CABAC : Yes
Format settings, ReFrames : 4 frames
Codec ID : V_MPEG4/ISO/AVC
Duration : 1h 27mn
Bit rate : 13.5 Mbps
Width : 1 920 pixels
Height : 1 080 pixels
Display aspect ratio : 16:9
Frame rate : 23.976 fps
Color space : YUV
Chroma subsampling : 4:2:0
Bit depth : 8 bits
Scan type : Progressive
Bits/(Pixel*Frame) : 0.272
Stream size : 8.24 GiB (78%)
Title : Enchanted Kingdom 3D (2013) - Release for HDCLUB
Writing library : x264 core 142 r2453kMod ea0ca51
Encoding settings : cabac=1 / ref=4 / deblock=1:-3:-3 / analyse=0x3:0x133 / me=umh / subme=9 / psy=1 / fade_compensate=0.00 / psy_rd=1.03:0.00 / mixed_ref=1 / me_range=48 / chroma_me=1 / trellis=2 / 8x8dct=1 / cqm=0 / deadzone=21,11 / fast_pskip=0 / chroma_qp_offset=-2 / threads=36 / lookahead_threads=6 / sliced_threads=0 / nr=0 / decimate=0 / interlaced=0 / bluray_compat=0 / constrained_intra=0 / fgo=0 / bframes=9 / b_pyramid=2 / b_adapt=2 / b_bias=0 / direct=3 / weightb=1 / open_gop=0 / weightp=2 / keyint=250 / keyint_min=23 / scenecut=40 / intra_refresh=0 / rc=crf / mbtree=0 / crf=19.5000 / qcomp=0.70 / qpmin=0 / qpmax=69 / qpstep=4 / frame-packing=3 / ip_ratio=1.40 / pb_ratio=1.30 / aq=3:0.85
Language : English
Default : Yes
Forced : No

Audio #1
ID : 2
Format : DTS
Format/Info : Digital Theater Systems
Codec ID : A_DTS
Duration : 1h 27mn
Bit rate mode : Constant
Bit rate : 1 510 Kbps
Channel(s) : 6 channels
Channel positions : Front: L C R, Side: L R, LFE
Sampling rate : 48.0 KHz
Bit depth : 24 bits
Compression mode : Lossy
Stream size : 943 MiB (9%)
Title : DTS 5.1 @ 1536 kbps - AVO, OMiCRON
Language : Russian
Default : Yes
Forced : No

Audio #2
ID : 3
Format : DTS
Format/Info : Digital Theater Systems
Codec ID : A_DTS
Duration : 1h 27mn
Bit rate mode : Constant
Bit rate : 1 510 Kbps
Channel(s) : 6 channels
Channel positions : Front: L C R, Side: L R, LFE
Sampling rate : 48.0 KHz
Bit depth : 24 bits
Compression mode : Lossy
Stream size : 943 MiB (9%)
Title : DTS 5.1 @ 1536 kbps - AVO, D.Esarev
Language : Russian
Default : No
Forced : No

Audio #3
ID : 4
Format : AC-3
Format/Info : Audio Coding 3
Mode extension : CM (complete main)
Format settings, Endianness : Big
Codec ID : A_AC3
Duration : 1h 27mn
Bit rate mode : Constant
Bit rate : 448 Kbps
Channel(s) : 6 channels
Channel positions : Front: L C R, Side: L R, LFE
Sampling rate : 48.0 KHz
Bit depth : 16 bits
Compression mode : Lossy
Stream size : 280 MiB (3%)
Title : AC3 5.1 @ 448 kbps
Language : English
Default : No
Forced : No

Text #1
ID : 5
Format : UTF-8
Codec ID : S_TEXT/UTF8
Codec ID/Info : UTF-8 Plain Text
Language : Russian
Default : No
Forced : No

Text #2
ID : 6
Format : UTF-8
Codec ID : S_TEXT/UTF8
Codec ID/Info : UTF-8 Plain Text
Language : English
Default : No
Forced : No

Menu
00:00:00.000 : en:00:00:00.000
00:00:39.039 : en:00:00:39.039
00:03:10.190 : en:00:03:10.190
00:07:20.148 : en:00:07:20.148
00:11:32.859 : en:00:11:32.859
00:14:10.933 : en:00:14:10.933
00:20:00.282 : en:00:20:00.282
00:20:54.253 : en:00:20:54.253
00:23:13.392 : en:00:23:13.392
00:25:41.999 : en:00:25:41.999
00:28:11.356 : en:00:28:11.356
00:30:39.838 : en:00:30:39.838
00:32:09.010 : en:00:32:09.010
00:36:59.592 : en:00:36:59.592
00:39:20.191 : en:00:39:20.191
00:43:40.284 : en:00:43:40.284
00:46:38.796 : en:00:46:38.796
00:48:13.891 : en:00:48:13.891
00:52:50.876 : en:00:52:50.876
00:56:49.364 : en:00:56:49.364
00:57:45.462 : en:00:57:45.462
01:01:04.661 : en:01:01:04.661
01:05:03.399 : en:01:05:03.399
01:10:12.959 : en:01:10:12.959
01:13:20.730 : en:01:13:20.730
01:16:34.423 : en:01:16:34.423
01:21:15.871 : en:01:21:15.871
01:24:40.575 : en:01:24:40.575

скриншот   скриншот   скриншот  piratbit.org



Скачать Заколдованное королевство 3D через торрент http://pic.kartinco.top/images/8/il9qm.jpg Скачать фильм Заколдованное королевство 3D через торрент бесплантно в хорошем качестве Описание: Документальный фильм о дикой природе Африки, снятый за 500 дней с применением новейших инновационных 3D технологий, является, ... 10 10 10
Торрент: Зарегистрирован [2014-12-30 17:52] · скачан: 265 раз
Статус: √ проверено
Размер: 10.56 GB
Как cкачать? Как скачать Заколдованное королевство 3D через торрент | qTorrent

% Раздел Тема Автор DL S | L
Документальные фильмы 3D [ 16.17 GB ] Заколдованное королевство 3Д в 3Д / Enchanted Kingdom 3D 3D [2013 Документальный Видовой BDrip 1080p] OverUnder / Вертикальная стереопара serega768 Скачать
1 | 0
Документалистика (48-60 fps) [ 7.56 GB ] Заколдованное королевство 3D / Enchanted Kingdom 3D [2013 документальный BDRip 720p VO] 60 fps mimok Скачать
1 | 0


>> Регистрируемся здесь <<






Отзывы и комментарии о схеме читаем и пишем здесь: ---> Отзывы и комментарии о схеме

Новые благодарочки в телеграм довольных пользователей:
скриншот   скриншот   скриншот   скриншот   скриншот
    Дорогой пользователь! Огромная просьба, поблагодарите релизера, оцените раздачу и оставьте свои комментарий, если Вы скачали Заколдованное королевство 3D через торрент бесплатно! Внесите свою лепту в развитие PiratBit!
    Комментировать посты могут только пользователи прошедшие не сложную регистрацию
    Показать сообщения:    

    Заколдованное королевство 3D через торрент
    Скачать бесплатно Заколдованное королевство 3D
    Заколдованное королевство 3D скачать торрент
    Заколдованное королевство 3D смотреть онлайн
    Cкачать фильм Заколдованное королевство 3D бесплатно
    Заколдованное королевство 3D скачать торрент в хорошем качестве
    Заколдованное королевство 3D смотреть онлайн бесплатно в хорошем качестве


    Вы не можете начинать темы
    Вы не можете отвечать на сообщения
    Вы не можете редактировать свои сообщения
    Вы не можете удалять свои сообщения
    Вы не можете голосовать в опросах
    Вы не можете прикреплять файлы к сообщениям
    Вы можете скачивать файлы