Доктор Стрэндж

Лицензия

Добыча

Дубляж

Уэнсдэй

1 сезон

Тор

Дубляж

В эфире

Дубляж

Там, где раки поют

MVO

Властелин колец

1 сезон

Deluxe

pack

Рекомендуем

30

Пиратка

ВАЖНО

ВАЖНО

Ghostwire

Пиратка

jed

RePack

nioh2

RePack

RDR2

RePack

NEED FOR SPEED™ PAYBACK

RePack

скачать торрент

Кинопоиск HD

Острые козырьки 6 сезон

6 сезон

FAR CRY 6

RePack

скачать торрент

Лицензия

скачать торрент

MVO

1

1 сезон

скачать торрент

1 сезон

скачать торрент

Лицензия

  

Виновный в романе / Koi no tsumi (Сион Соно) [2011, ужасы, драма, BDRip 720p] DVO (любительский)

Виновный в романе через торрент piratbit.org

Размер: 2.75 GB | Добавлен: 7 лет 11 мес. назад | Торрент скачан:35 раз
Смотреть онлайн | Скачать   

04-01-2015 08:20 Виновный в романе Скачать торрент  

Виновный в романе / Koi no tsumi

Год выпуска: 2011
Страна: Япония
Жанр: ужасы, драма
Продолжительность: 01:53:17
Перевод: любительский двухголосый
Субтитры: русские, английские хардсабы

Режиссёр: Сион Соно

В ролях: Мики Мизуно, Макото Тогаси, Мегуми Кагуразака, Казуя Кодрима, Сатоси Никайдо, Рюи Кобаяси, Синго Гоцудзи, Мотоки Фуками, Тика Утида, Мари Матида

Описание: Ицуми замужем за известным писателем романтического жанра, но их семейная жизнь выглядит как повесть, лишённая романтики. Однажды она решает последовать своим желаниям и соглашается обнажённой имитировать секс перед камерой. Остановится ли Ицуми в своих желаниях, и удастся ли ей совмещать новые занятия с ролью заботливой жены?..



Качество: BDRip 720p Сравнение с исходником
Формат: MKV
Видео кодек: H.264
Аудио кодек: AC3
Видео: 3020 kbps, 1280x692, 23.976 кадра/с, 0.142 bpp
Аудио 1: русский, AC3, 448 kbps, 6 ch, 48 kHz [любительский двухголосый, DeadSno & den904]
Аудио 2: японский, AC3, 448 kbps, 6 ch, 48 kHz [оригинал]

Имеются неименованные главы/чаптеры.
Азиатская киноакадемия, 2012 год
Номинации (1):
Лучший режиссер (Сион Соно)
frame I:1347 Avg QP:14.87 size: 78474
frame P:33110 Avg QP:15.99 size: 33977
frame B:128525 Avg QP:18.24 size: 10831
Общее
Уникальный идентификатор : 224032282792215596388951507281196384368 (0xA88B0C566F6604AFAE3163132FF88070)
Полное имя : D:VideoVinovnyj v romane.2011.BDRip.720p.mkv
Формат : Matroska
Версия формата : Version 4 / Version 2
Размер файла : 2,75 Гбайт
Продолжительность : 1 ч. 53 м.
Общий поток : 3473 Кбит/сек
Дата кодирования : UTC 2015-01-04 05:44:13
Программа кодирования : mkvmerge v7.4.0 ('Circles') 64bit built on Dec 12 2014 12:19:56
Библиотека кодирования : libebml v1.3.0 + libmatroska v1.4.1
DURATION : 01:52:28.206000000
NUMBER_OF_FRAMES : 1100
NUMBER_OF_BYTES : 30350
_STATISTICS_WRITING_APP : mkvmerge v7.4.0 ('Circles') 64bit built on Dec 12 2014 12:19:56
_STATISTICS_WRITING_DATE_UTC : 2015-01-04 05:44:13
_STATISTICS_TAGS : BPS DURATION NUMBER_OF_FRAMES NUMBER_OF_BYTES

Видео
Идентификатор : 1
Формат : AVC
Формат/Информация : Advanced Video Codec
Профиль формата : High@L4.1
Параметр CABAC формата : Да
Параметр ReFrames формата : 9 кадров
Идентификатор кодека : V_MPEG4/ISO/AVC
Продолжительность : 1 ч. 53 м.
Битрейт : 3020 Кбит/сек
Ширина : 1280 пикселей
Высота : 692 пикселя
Соотношение сторон : 1,85:1
Режим частоты кадров : Постоянный
Частота кадров : 23,976 кадра/сек
Цветовое пространство : YUV
Субдискретизация насыщенности : 4:2:0
Битовая глубина : 8 бит
Тип развёртки : Прогрессивная
Бит/(Пиксели*Кадры) : 0.142
Размер потока : 2,39 Гбайт (87%)
Заголовок : BDRip -- STarankov
Библиотека кодирования : x264 core 142 r2431 ac76440
Настройки программы : cabac=1 / ref=9 / deblock=1:-1:-1 / analyse=0x3:0x113 / me=umh / subme=10 / psy=1 / psy_rd=1.00:0.15 / mixed_ref=1 / me_range=32 / chroma_me=1 / trellis=2 / 8x8dct=1 / cqm=0 / deadzone=21,11 / fast_pskip=1 / chroma_qp_offset=-3 / threads=6 / lookahead_threads=1 / sliced_threads=0 / nr=0 / decimate=1 / interlaced=0 / bluray_compat=0 / constrained_intra=0 / bframes=8 / b_pyramid=2 / b_adapt=2 / b_bias=0 / direct=3 / weightb=1 / open_gop=0 / weightp=2 / keyint=230 / keyint_min=23 / scenecut=40 / intra_refresh=0 / rc_lookahead=40 / rc=crf / mbtree=0 / crf=19.0 / qcomp=0.60 / qpmin=0 / qpmax=69 / qpstep=4 / vbv_maxrate=40000 / vbv_bufsize=50000 / crf_max=0.0 / nal_hrd=none / filler=0 / ip_ratio=1.40 / pb_ratio=1.30 / aq=1:1.00
Язык : Japanese
Default : Да
Forced : Нет
DURATION : 01:53:17.708000000
NUMBER_OF_FRAMES : 162982
NUMBER_OF_BYTES : 2622686515
_STATISTICS_WRITING_APP : mkvmerge v7.4.0 ('Circles') 64bit built on Dec 12 2014 12:19:56
_STATISTICS_WRITING_DATE_UTC : 2015-01-04 05:44:13
_STATISTICS_TAGS : BPS DURATION NUMBER_OF_FRAMES NUMBER_OF_BYTES

Аудио #1
Идентификатор : 2
Формат : AC-3
Формат/Информация : Audio Coding 3
Расширение режима : CM (complete main)
Параметр Endianness формата : Big
Идентификатор кодека : A_AC3
Продолжительность : 1 ч. 53 м.
Вид битрейта : Постоянный
Битрейт : 192 Кбит/сек
Каналы : 2 канала
Расположение каналов : Front: L R
Частота : 48,0 КГц
Битовая глубина : 16 бит
Метод сжатия : С потерями
Размер потока : 156 Мбайт (6%)
Заголовок : DVO (любительский, DeadSno & den904)
Язык : Russian
Default : Да
Forced : Нет

Аудио #2
Идентификатор : 3
Формат : AC-3
Формат/Информация : Audio Coding 3
Расширение режима : CM (complete main)
Параметр Endianness формата : Big
Идентификатор кодека : A_AC3
Продолжительность : 1 ч. 53 м.
Вид битрейта : Постоянный
Битрейт : 192 Кбит/сек
Каналы : 2 канала
Расположение каналов : Front: L R
Частота : 48,0 КГц
Битовая глубина : 16 бит
Метод сжатия : С потерями
Размер потока : 156 Мбайт (6%)
Заголовок : Original
Язык : Japanese
Default : Нет
Forced : Нет

Текст #1
Идентификатор : 4
Формат : UTF-8
Идентификатор кодека : S_TEXT/UTF8
Идентификатор кодека/Информация : UTF-8 Plain Text
Заголовок : русский
Язык : Russian
Default : Нет
Forced : Нет

Текст #2
Идентификатор : 5
Формат : UTF-8
Идентификатор кодека : S_TEXT/UTF8
Идентификатор кодека/Информация : UTF-8 Plain Text
Заголовок : английский
Default : Нет
Forced : Нет

Меню
00:00:00.000 : :Chapter 01
00:08:17.664 : :Chapter 02
00:13:54.751 : :Chapter 03
00:20:09.416 : :Chapter 04
00:27:09.378 : :Chapter 05
00:31:46.822 : :Chapter 06
00:43:42.620 : :Chapter 07
00:50:42.539 : :Chapter 08
00:57:33.075 : :Chapter 09
01:06:23.938 : :Chapter 10
01:12:43.192 : :Chapter 11
01:19:34.103 : :Chapter 12
01:27:10.725 : :Chapter 13
01:36:35.122 : :Chapter 14
01:48:11.193 : :Chapter 15
01:50:28.205 : :Chapter 16



Скачать Виновный в романе через торрент http://i68.fastpic.ru/big/2015/0104/e9/59872bad6fa67876b60ac00e22cea3e9.jpg Скачать, смотреть онлайн Виновный в романе бесплантно в хорошем качестве Описание: Ицуми замужем за известным писателем романтического жанра, но их семейная жизнь выглядит как повесть, лишённая романтики. Однажды ... 10 10 2
Info! Серебряная раздача, засчитывается только 50% скачанного.
Торрент: Зарегистрирован [2015-01-04 08:20] · скачан: 35 раз
Статус: T временная
Размер: 2.75 GB
Как cкачать? Как скачать Виновный в романе через торрент | UTorrent

% Раздел Тема Автор DL S | L
Фильмы [HD 720p, 1080p] (Звук Cam, VO, DVO) [ 8.38 GB ] Виновный в романе / Koi no tsumi | | 1080p msltel Скачать
1 | 0

28-11-2019 20:33  


Отключить вcю реклaмy на сайте, в т.ч. и в плеере онлайн просмотра!

    Дорогой пользователь! Огромная просьба, поблагодарите релизера, оцените раздачу и оставьте свои комментарий, если Вы скачали Виновный в романе через торрент бесплатно!!
    Комментировать посты могут только пользователи прошедшие не сложную регистрацию
    Показать сообщения:    


    Виновный в романе через торрент
    Скачать бесплатно Виновный в романе
    Виновный в романе скачать торрент
    Виновный в романе смотреть онлайн
    Cкачать фильм Виновный в романе бесплатно
    Виновный в романе скачать торрент в хорошем качестве
    Виновный в романе смотреть онлайн бесплатно в хорошем качестве
    Вы не можете начинать темы
    Вы не можете отвечать на сообщения
    Вы не можете редактировать свои сообщения
    Вы не можете удалять свои сообщения
    Вы не можете голосовать в опросах
    Вы не можете прикреплять файлы к сообщениям
    Вы можете скачивать файлы
    Виновный в романе / Koi no tsumi [2011, ужасы, драма, BDRip 720p] DVO смотреть онлайн, скачать торрент picoco.icu