Ссылка на приватное зеркало нашего сайта всего за 1$. Внимание количество ограничено!!!

2 сезон

iTunes

iTunes

1

iTunes

iTunes

iTunes

WEBRip

iTunes

30
pack

Вам бонус

ВАЖНО

!!Акция!!

Alien_RageХит недели

RePack

Horizon Zero Dawn

ИГРА 18+

pack

RePack

jed

!!Акция!!

Alien_Rage

RePack

fifa19

RePack

Assassins Creed: Odyssey

RePack

NEED FOR SPEED™ PAYBACK

4 сезон

9 сезон

Бесстыжие 9 сезон

Все сериалы

все сериалы на PB.wtf

RePack

FAR CRY 5
  

Переправа / Crossing Over (Уэйн Крамер / Wayne Kramer) [2008, Драма, BDRip-AVC] DUB Лицензия piratbit.org

Переправа через торрент piratbit.org

Размер: 2.18 GB | Добавлен: 5 лет 8 мес. назад | Торрент скачан:184 раза
Скачать  

06-01-2015 09:56 Переправа Скачать торрент  

Переправа / Crossing Over
Год выпуска: 2008
Страна: США / The Weinstein Company LLC, The Kennedy/Marshall Company, Movie Prose...
Жанр: Драма
Продолжительность: 01:53:03
Перевод: Профессиональный (двухголосый закадровый) [R5]
Субтитры: Русские, украинские, английские

Режиссер: Уэйн Крамер / Wayne Kramer

В ролях: Харрисон Форд, Рэй Лиотта, Элис Ив, Эшли Джадд, Джим Стёрджесс, Клифф Кёртис, Алиси Брага, Саммер Бишил, Жаклин Обрадорс, Джастин Чон

Описание: Основная сюжетная линия картины рассказывает о нелегальных гастарбайтерах, попавших в США по разным причинам. Иммигранты пытаются легализовать свой статус — у кого-то это получается, а у кого-то нет…



Качество: BDRip-AVC
Формат: MKV
Видео кодек: H.264
Аудио кодек: AC3
Видео: 1040x442 (2,35:1), 23,976 fps, 1864 kbps, 0.169 bit/pixel
Аудио#1: 48 kHz, AC3 Dolby Digital, 3/2 (L,C,R,l,r) + LFE ch, 448.00 kbps | RUS
Аудио#2: 48 kHz, AC3 Dolby Digital, 3/2 (L,C,R,l,r) + LFE ch, 448.00 kbps | ENG

Релиз группы:
Автор рипа: potroks

Общее
Уникальный идентификатор : 252472472859201124045315222043618619580 (0xBDF06DF7BAC3A3E7A314773B7256B0BC)
Полное имя : Pereprava.2009.DUAL.BDRip.x264.-HELLYWOOD.mkv
Формат : Matroska
Версия формата : Version 4 / Version 2
Размер файла : 2,18 Гбайт
Продолжительность : 1 ч. 53 м.
Общий поток : 2763 Кбит/сек
Название фильма : Crossing Over (2009) - HELLYWOOD
Дата кодирования : UTC 2015-01-06 08:16:11
Программа кодирования : mkvmerge v5.9.0 ('On The Loose') built on Dec 15 2012 16:39:58
Библиотека кодирования : libebml v1.3.0 + libmatroska v1.4.0

Видео
Идентификатор : 1
Формат : AVC
Формат/Информация : Advanced Video Codec
Профиль формата : High@L4.1
Параметр CABAC формата : Да
Параметр ReFrames формата : 10 кадров
Идентификатор кодека : V_MPEG4/ISO/AVC
Продолжительность : 1 ч. 53 м.
Битрейт : 1864 Кбит/сек
Ширина : 1040 пикселей
Высота : 442 пикселя
Соотношение сторон : 2,35:1
Режим частоты кадров : Постоянный
Частота кадров : 23,976 кадра/сек
Цветовое пространство : YUV
Субдискретизация насыщенности : 4:2:0
Битовая глубина : 8 бит
Тип развёртки : Прогрессивная
Бит/(Пиксели*Кадры) : 0.169
Размер потока : 1,43 Гбайт (66%)
Заголовок : potroks
Библиотека кодирования : x264 core 130 r2273 b3065e6
Настройки программы : cabac=1 / ref=10 / deblock=1:-3:-3 / analyse=0x3:0x133 / me=umh / subme=11 / psy=1 / psy_rd=0.99:0.02 / mixed_ref=1 / me_range=48 / chroma_me=1 / trellis=2 / 8x8dct=1 / cqm=0 / deadzone=21,11 / fast_pskip=0 / chroma_qp_offset=-3 / threads=9 / lookahead_threads=7 / sliced_threads=0 / nr=0 / decimate=0 / interlaced=0 / bluray_compat=0 / constrained_intra=0 / bframes=11 / b_pyramid=2 / b_adapt=2 / b_bias=0 / direct=3 / weightb=1 / open_gop=0 / weightp=2 / keyint=250 / keyint_min=23 / scenecut=40 / intra_refresh=0 / rc_lookahead=60 / rc=2pass / mbtree=0 / bitrate=1864 / ratetol=1.0 / qcomp=0.70 / qpmin=0 / qpmax=69 / qpstep=4 / cplxblur=20.0 / qblur=0.5 / vbv_maxrate=50000 / vbv_bufsize=62500 / nal_hrd=none / ip_ratio=1.35 / pb_ratio=1.25 / aq=1:0.80
Язык : English
Default : Да
Forced : Нет

Аудио #1
Идентификатор : 2
Формат : AC-3
Формат/Информация : Audio Coding 3
Расширение режима : CM (complete main)
Параметр Endianness формата : Big
Идентификатор кодека : A_AC3
Продолжительность : 1 ч. 53 м.
Вид битрейта : Постоянный
Битрейт : 448 Кбит/сек
Каналы : 6 каналов
Расположение каналов : Front: L C R, Side: L R, LFE
Частота : 48,0 КГц
Битовая глубина : 16 бит
Метод сжатия : С потерями
Размер потока : 362 Мбайт (16%)
Заголовок : DVO | DD 5.1 @ 448 kbps
Язык : Russian
Default : Да
Forced : Нет

Аудио #2
Идентификатор : 3
Формат : AC-3
Формат/Информация : Audio Coding 3
Расширение режима : CM (complete main)
Параметр Endianness формата : Big
Идентификатор кодека : A_AC3
Продолжительность : 1 ч. 53 м.
Вид битрейта : Постоянный
Битрейт : 448 Кбит/сек
Каналы : 6 каналов
Расположение каналов : Front: L C R, Side: L R, LFE
Частота : 48,0 КГц
Битовая глубина : 16 бит
Метод сжатия : С потерями
Размер потока : 362 Мбайт (16%)
Заголовок : Original | DD 5.1 @ 448 kbps
Язык : English
Default : Нет
Forced : Нет

Текст #1
Идентификатор : 4
Формат : UTF-8
Идентификатор кодека : S_TEXT/UTF8
Идентификатор кодека/Информация : UTF-8 Plain Text
Заголовок : полные
Язык : Russian
Default : Нет
Forced : Нет

Текст #2
Идентификатор : 5
Формат : UTF-8
Идентификатор кодека : S_TEXT/UTF8
Идентификатор кодека/Информация : UTF-8 Plain Text
Заголовок : Jombi-200
Язык : Russian
Default : Нет
Forced : Нет

Текст #3
Идентификатор : 6
Формат : UTF-8
Идентификатор кодека : S_TEXT/UTF8
Идентификатор кодека/Информация : UTF-8 Plain Text
Заголовок : SDH [KingMen]
Язык : Russian
Default : Нет
Forced : Нет

Текст #4
Идентификатор : 7
Формат : UTF-8
Идентификатор кодека : S_TEXT/UTF8
Идентификатор кодека/Информация : UTF-8 Plain Text
Язык : Ukrainian
Default : Нет
Forced : Нет

Текст #5
Идентификатор : 8
Формат : UTF-8
Идентификатор кодека : S_TEXT/UTF8
Идентификатор кодека/Информация : UTF-8 Plain Text
Язык : English
Default : Нет
Forced : Нет

Меню
00:00:00.000 : en:(01)00:00:00:000
00:09:04.877 : en:(02)00:09:04:877
00:20:08.040 : en:(03)00:20:08:040
00:30:43.675 : en:(04)00:30:43:675
00:37:59.277 : en:(05)00:37:59:277
00:48:06.466 : en:(06)00:48:06:466
01:01:06.913 : en:(07)01:01:06:913
01:08:17.635 : en:(08)01:08:17:635
01:17:22.763 : en:(09)01:17:22:763
01:28:26.134 : en:(10)01:28:26:134
01:38:09.383 : en:(11)01:38:09:383
01:47:12.759 : en:(12)01:47:12:759
01:53:03.777 : en:(13)01:53:03:777

piratbit.org



Скачать Переправа через торрент http://pic.kartinco.top/images/8/3cm74.jpg Скачать фильм Переправа через торрент бесплантно в хорошем качестве Описание: Основная сюжетная линия картины рассказывает о нелегальных гастарбайтерах, попавших в США по разным причинам. Иммигранты пытаются ... 8.8 10 5
Торрент: Зарегистрирован [2015-01-06 09:56] · скачан: 184 раз
Статус: √ проверено
Размер: 2.18 GB
Как cкачать? Как скачать Переправа через торрент | qTorrent

28-11-2019 20:33  

Отключить всю рекламу на сайте

    Дорогой пользователь! Огромная просьба, поблагодарите релизера, оцените раздачу и оставьте свои комментарий, если Вы скачали Переправа через торрент бесплатно! Внесите свою лепту в развитие PiratBit!
    Комментировать посты могут только пользователи прошедшие не сложную регистрацию
    Показать сообщения:    

    Переправа через торрент
    Скачать бесплатно Переправа
    Переправа скачать торрент
    Переправа смотреть онлайн
    Cкачать фильм Переправа бесплатно
    Переправа скачать торрент в хорошем качестве
    Переправа смотреть онлайн бесплатно в хорошем качестве


    Вы не можете начинать темы
    Вы не можете отвечать на сообщения
    Вы не можете редактировать свои сообщения
    Вы не можете удалять свои сообщения
    Вы не можете голосовать в опросах
    Вы не можете прикреплять файлы к сообщениям
    Вы можете скачивать файлы