Всегда рабочее зеркало без VPN и Proxy просто перед .vidak.icu напиши любое слово или цифру, Пример http://uen1.vidak.icu

MVO

MVO

1 сезон

1

1 сезон

iTunes

1 сезон

13

1 сезон

Deluxe

pack

Рекомендуем

Repack

30

ВАЖНО

RePack

MK11

RePack

jed

RePack

fifa19

RePack

RDR2

RePack

NEED FOR SPEED™ PAYBACK

Кинопоиск HD

6 сезон

 Острые козырьки 6 сезон

Все сериалы

все сериалы на PB.wtf

RePack

FAR CRY 5
  
Magnet ссылка

Ограбление на Бейкер-Стрит / The Bank Job (Роджер Дональдсон / Roger Donaldson) [2008, Великобритания, США, Австралия, триллер, драма, криминал, BDRip 1080p, DUB, AVO] piratbit.org

Ограбление на Бейкер-Стрит через торрент piratbit.org

Размер: 11.83 GB | Добавлен: 7 лет 6 мес. назад | Торрент скачан:182 раза
Смотреть онлайн Ограбление на Бейкер-Стрит | Скачать    Ребята, помогите собрать деньги на оплату серверов!!!

10-01-2015 20:44 Ограбление на Бейкер-Стрит Скачать торрент  

Ограбление на Бейкер-Стрит / The Bank Job

Год выпуска: 2008
Страна:Великобритания, США, Австралия
Жанр: триллер, драма, криминал
Продолжительность: 01:52:01
Перевод: Дублированный, Авторский (одноголосый)
Режиссер: Роджер Дональдсон / Roger Donaldson
В ролях:
Джейсон Стэйтем (Terry Leather), Саффрон Берроуз (Martine Love), Стивен Кэмпбелл Мур (Kevin Swain), Дэниэл Мейс (Dave Shilling), Джеймс Фолкнер (Guy Singer), Алки Дэвид (Bambas), Майкл Джибсон (Eddie Burton), Джорджия Тейлор (Ingrid Burton), Ричард Линтерн (Tim Everett), Питер Боулз (Miles Urquart), Алистэр Петри (Philip Lisle), Хэтти Морахэн (Gale Benson)

Описание:
Фильм основан на реальных событиях, происходивших в Великобритании в 1971 году. После 35 лет забвения мы наконец узнаем об одном из самых легендарных ограблений банка в истории Великобритании, когда не было произведено ни одного ареста и не было найдено ни малейшего следа похищенных денег.
Налёт на банк на Бейкер Стрит был инициирован высокопоставленными официальными лицами, пытающимися добраться до заветной банковской ячейки, в которой хозяйка одного из известнейших борделей Лондона хранила секретную информацию. Теперь запрет на разглашение информации об этом ограблении снят британским правительством, и перед нами открывается красочная, лихо закрученная история, полная тайн, сюрпризов и неожиданных поворотов.
Рейтинг:


Качество: BDRip 1080p
Формат: MKV
Видео кодек: AVC
Аудио кодек: DTS
Видео: AVC, 1920x816 (2.35:1), 10291 kbps, 23,976 fps, 0,274 bpp
Аудио №1: русский / DTS / 5.1 / 48 kHz / 1510 kbps / 24 bit |Дублированный|
Аудио №2: русский / DTS / 5.1 / 48 kHz / 1510 kbps / 16 bit |Авторский, Андрей Гаврилов|
Аудио №3: русский / DTS / 5.1 / 48 kHz / 1510 kbps / 16 bit |Авторский, Юрий Немахов|

Код:

Общее
Уникальный идентификатор                 : 214830425344672897417799215702891071700 (0xA19ED5BCE7120243B90C3CB5DE4088D4)
Полное имя                               : H:\Ограбление на Бейкер-Стрит.2008.BDRip.1080p.mkv
Формат                                   : Matroska
Версия формата                           : Version 4 / Version 2
Размер файла                             : 11,8 Гбайт
Продолжительность                        : 1 ч. 52 м.
Общий поток                              : 15,1 Мбит/сек
Дата кодирования                         : UTC 2014-06-04 00:51:16
Программа кодирования                    : mkvmerge v6.9.1 ('Blue Panther') 64bit built on Apr 18 2014 18:23:38
Библиотека кодирования                   : libebml v1.3.0 + libmatroska v1.4.1

Видео
Идентификатор                            : 1
Формат                                   : AVC
Формат/Информация                        : Advanced Video Codec
Профиль формата                          : High@L4.1
Параметр CABAC формата                   : Да
Параметр ReFrames формата                : 4 кадра
Идентификатор кодека                     : V_MPEG4/ISO/AVC
Продолжительность                        : 1 ч. 52 м.
Битрейт                                  : 10,3 Мбит/сек
Ширина                                   : 1920 пикселей
Высота                                   : 816 пикселей
Соотношение сторон                       : 2,35:1
Режим частоты кадров                     : Постоянный
Частота кадров                           : 23,976 кадра/сек
Цветовое пространство                    : YUV
Субдискретизация насыщенности            : 4:2:0
Битовая глубина                          : 8 бит
Тип развёртки                            : Прогрессивная
Бит/(Пиксели*Кадры)                      : 0.274
Размер потока                            : 8,05 Гбайт (68%)
Заголовок                                : BDRip  --  STarankov
Библиотека кодирования                   : x264 core 138 r2358 9e941d1
Настройки программы                      : cabac=1 / ref=4 / deblock=1:-1:-1 / analyse=0x3:0x113 / me=umh / subme=10 / psy=1 / psy_rd=1.00:0.15 / mixed_ref=1 / me_range=32 / chroma_me=1 / trellis=2 / 8x8dct=1 / cqm=0 / deadzone=21,11 / fast_pskip=0 / chroma_qp_offset=-3 / threads=6 / lookahead_threads=1 / sliced_threads=0 / nr=0 / decimate=1 / interlaced=0 / bluray_compat=0 / constrained_intra=0 / bframes=8 / b_pyramid=2 / b_adapt=2 / b_bias=0 / direct=1 / weightb=1 / open_gop=0 / weightp=2 / keyint=230 / keyint_min=23 / scenecut=40 / intra_refresh=0 / rc_lookahead=40 / rc=crf / mbtree=0 / crf=19.0 / qcomp=0.60 / qpmin=0 / qpmax=69 / qpstep=4 / vbv_maxrate=40000 / vbv_bufsize=50000 / crf_max=0.0 / nal_hrd=none / ip_ratio=1.40 / pb_ratio=1.30 / aq=1:1.00
Язык                                     : English
Default                                  : Да
Forced                                   : Нет

Аудио #1
Идентификатор                            : 2
Формат                                   : DTS
Формат/Информация                        : Digital Theater Systems
Режим                                    : 16
Параметр Endianness формата              : Big
Идентификатор кодека                     : A_DTS
Продолжительность                        : 1 ч. 52 м.
Вид битрейта                             : Постоянный
Битрейт                                  : 1510 Кбит/сек
Каналы                                   : 6 каналов
Расположение каналов                     : Front: L C R, Side: L R, LFE
Частота                                  : 48,0 КГц
Битовая глубина                          : 24 бит
Метод сжатия                             : С потерями
Размер потока                            : 1,18 Гбайт (10%)
Заголовок                                : DUB
Язык                                     : Russian
Default                                  : Да
Forced                                   : Нет

Аудио #2
Идентификатор                            : 3
Формат                                   : DTS
Формат/Информация                        : Digital Theater Systems
Режим                                    : 16
Параметр Endianness формата              : Big
Идентификатор кодека                     : A_DTS
Продолжительность                        : 1 ч. 52 м.
Вид битрейта                             : Постоянный
Битрейт                                  : 1509 Кбит/сек
Каналы                                   : 6 каналов
Расположение каналов                     : Front: L C R, Side: L R, LFE
Частота                                  : 48,0 КГц
Битовая глубина                          : 16 бит
Метод сжатия                             : С потерями
Размер потока                            : 1,18 Гбайт (10%)
Заголовок                                : AVO (Андрей Гаврилов)
Язык                                     : Russian
Default                                  : Нет
Forced                                   : Нет

Аудио #3
Идентификатор                            : 4
Формат                                   : DTS
Формат/Информация                        : Digital Theater Systems
Режим                                    : 16
Параметр Endianness формата              : Big
Идентификатор кодека                     : A_DTS
Продолжительность                        : 1 ч. 52 м.
Вид битрейта                             : Постоянный
Битрейт                                  : 1509 Кбит/сек
Каналы                                   : 6 каналов
Расположение каналов                     : Front: L C R, Side: L R, LFE
Частота                                  : 48,0 КГц
Битовая глубина                          : 16 бит
Метод сжатия                             : С потерями
Размер потока                            : 1,18 Гбайт (10%)
Заголовок                                : AVO (Юрий Немахов)
Язык                                     : Russian
Default                                  : Нет
Forced                                   : Нет

скриншот   скриншот   скриншот   скриншот  
piratbit.org



Скачать Ограбление на Бейкер-Стрит через торрент http://i4.imageban.ru/out/2015/01/10/5effaf335a1fc786e3548104721faa30.png Скачать, смотреть онлайн Ограбление на Бейкер-Стрит бесплантно в хорошем качестве Описание: Фильм основан на реальных событиях, происходивших в Великобритании в 1971 году. После 35 лет забвения мы наконец узнаем об одном ... 10 10 4
Info! Золотая раздача, скачанное не засчитывается.
Торрент: Зарегистрирован [2015-01-10 20:44] · скачан: 182 раз
Статус: √ проверено
Размер: 11.83 GB
Как cкачать? Как скачать Ограбление на Бейкер-Стрит через торрент | UTorrent

% Раздел Тема Автор DL S | L
Фильмы (Blu-ray, BD-Remux, HDDVD) [ 29.89 GB ] Ограбление на Бейкер-Стрит / The Bank Job [2008 BD Remux авторский авторскийукраинскийпрофессиональный ] Бумер Скачать
1 | 0
Релизы по Парсеру [Игры, Сериалы и Фильмы и другое...] [ 4.07 GB ] Ограбление на Бейкер-Стрит / The Bank Job [2008 BDRip-AVC] Dub + MVO + 2x AVO + Original + Subs sanekbest1 Скачать
1 | 0
Фильмы (HD 720p, 1080p) (48-60 fps) [ 4.87 GB ] Ограбление на Бейкер-Стрит / The Bank Job [2008 BDRip 720p] MVO + Sub slaventi-69 Скачать
1 | 0
Фильмы [HD 720p, 1080p] (Хороший звук DUB, MVO) [ 9.13 GB ] Ограбление на Бейкер-Стрит / The Bank Job [2008 BDRip ] markfiter Скачать
1 | 0
Фильмы (Blu-ray, BD-Remux, HDDVD) [ 22.06 GB ] Ограбление на Бейкер-Стрит / The Bank Job [2008 Blu-ray + Оригинал] Бумер Скачать
1 | 0
Фильмы [HD 720p, 1080p] (Хороший звук DUB, MVO) [ 7.95 GB ] Ограбление на Бейкер-Стрит / The Bank Job [2008 BDRip 1080p + Авторский Андрей Гаврилов + Оригинал Бумер Скачать
1 | 0
Фильмы 2006-2008 [ 744 MB ] Ограбление на Бейкер-Стрит / The Bank Job [2008 HDRip DUB] Mr. Freeman Скачать
1 | 0

28-11-2019 20:33  

Отключить вcю реклaмy на сайте

10-01-2015 21:09 Ограбление на Бейкер-Стрит Скачать торрент  

о,щикарно
спасибо piratbit.org



  Мат, оскорбления в чате, выдал Phoenix

10-01-2015 21:42 Ограбление на Бейкер-Стрит Скачать торрент  

Индеец племени шизы писал(а):

о,щикарно
спасибо

Приятного просмотра piratbit.org



    Дорогой пользователь! Огромная просьба, поблагодарите релизера, оцените раздачу и оставьте свои комментарий, если Вы скачали Ограбление на Бейкер-Стрит через торрент бесплатно!
    Комментировать посты могут только пользователи прошедшие не сложную регистрацию
    Показать сообщения:    

    Ограбление на Бейкер-Стрит через торрент
    Скачать бесплатно Ограбление на Бейкер-Стрит
    Ограбление на Бейкер-Стрит скачать торрент
    Ограбление на Бейкер-Стрит смотреть онлайн
    Cкачать фильм Ограбление на Бейкер-Стрит бесплатно
    Ограбление на Бейкер-Стрит скачать торрент в хорошем качестве
    Ограбление на Бейкер-Стрит смотреть онлайн бесплатно в хорошем качестве


    Вы не можете начинать темы
    Вы не можете отвечать на сообщения
    Вы не можете редактировать свои сообщения
    Вы не можете удалять свои сообщения
    Вы не можете голосовать в опросах
    Вы не можете прикреплять файлы к сообщениям
    Вы можете скачивать файлы